  0
SECTION
  2
HEADER
  9
$ACADVER
  1
AC1015
  9
$ACADMAINTVER
 70
     6
  9
$DWGCODEPAGE
  3
ANSI_1252
  9
$INSBASE
 10
0.0
 20
0.0
 30
0.0
  9
$EXTMIN
 10
0.0
 20
0.0
 30
0.0
  9
$EXTMAX
 10
210.0000000000001
 20
297.0000000000001
 30
0.0
  9
$LIMMIN
 10
0.0
 20
0.0
  9
$LIMMAX
 10
12.0
 20
9.0
  9
$ORTHOMODE
 70
     0
  9
$REGENMODE
 70
     1
  9
$FILLMODE
 70
     1
  9
$QTEXTMODE
 70
     0
  9
$MIRRTEXT
 70
     1
  9
$LTSCALE
 40
1.0
  9
$ATTMODE
 70
     1
  9
$TEXTSIZE
 40
0.2
  9
$TRACEWID
 40
0.05
  9
$TEXTSTYLE
  7
Standard
  9
$CLAYER
  8
0
  9
$CELTYPE
  6
ByLayer
  9
$CECOLOR
 62
   256
  9
$CELTSCALE
 40
1.0
  9
$DISPSILH
 70
     0
  9
$DIMSCALE
 40
1.0
  9
$DIMASZ
 40
0.18
  9
$DIMEXO
 40
0.0625
  9
$DIMDLI
 40
0.38
  9
$DIMRND
 40
0.0
  9
$DIMDLE
 40
0.0
  9
$DIMEXE
 40
0.18
  9
$DIMTP
 40
0.0
  9
$DIMTM
 40
0.0
  9
$DIMTXT
 40
0.18
  9
$DIMCEN
 40
0.09
  9
$DIMTSZ
 40
0.0
  9
$DIMTOL
 70
     0
  9
$DIMLIM
 70
     0
  9
$DIMTIH
 70
     1
  9
$DIMTOH
 70
     1
  9
$DIMSE1
 70
     0
  9
$DIMSE2
 70
     0
  9
$DIMTAD
 70
     0
  9
$DIMZIN
 70
     0
  9
$DIMBLK
  1

  9
$DIMASO
 70
     1
  9
$DIMSHO
 70
     1
  9
$DIMPOST
  1

  9
$DIMAPOST
  1

  9
$DIMALT
 70
     0
  9
$DIMALTD
 70
     2
  9
$DIMALTF
 40
25.4
  9
$DIMLFAC
 40
1.0
  9
$DIMTOFL
 70
     0
  9
$DIMTVP
 40
0.0
  9
$DIMTIX
 70
     0
  9
$DIMSOXD
 70
     0
  9
$DIMSAH
 70
     0
  9
$DIMBLK1
  1

  9
$DIMBLK2
  1

  9
$DIMSTYLE
  2
Standard
  9
$DIMCLRD
 70
     0
  9
$DIMCLRE
 70
     0
  9
$DIMCLRT
 70
     0
  9
$DIMTFAC
 40
1.0
  9
$DIMGAP
 40
0.09
  9
$DIMJUST
 70
     0
  9
$DIMSD1
 70
     0
  9
$DIMSD2
 70
     0
  9
$DIMTOLJ
 70
     1
  9
$DIMTZIN
 70
     0
  9
$DIMALTZ
 70
     0
  9
$DIMALTTZ
 70
     0
  9
$DIMUPT
 70
     0
  9
$DIMDEC
 70
     4
  9
$DIMTDEC
 70
     4
  9
$DIMALTU
 70
     2
  9
$DIMALTTD
 70
     2
  9
$DIMTXSTY
  7
Standard
  9
$DIMAUNIT
 70
     0
  9
$DIMADEC
 70
     0
  9
$DIMALTRND
 40
0.0
  9
$DIMAZIN
 70
     0
  9
$DIMDSEP
 70
    46
  9
$DIMATFIT
 70
     3
  9
$DIMFRAC
 70
     0
  9
$DIMLDRBLK
  1

  9
$DIMLUNIT
 70
     2
  9
$DIMLWD
 70
    -2
  9
$DIMLWE
 70
    -2
  9
$DIMTMOVE
 70
     0
  9
$LUNITS
 70
     2
  9
$LUPREC
 70
     4
  9
$SKETCHINC
 40
0.1
  9
$FILLETRAD
 40
0.5
  9
$AUNITS
 70
     0
  9
$AUPREC
 70
     0
  9
$MENU
  1
.
  9
$ELEVATION
 40
0.0
  9
$PELEVATION
 40
0.0
  9
$THICKNESS
 40
0.0
  9
$LIMCHECK
 70
     0
  9
$CHAMFERA
 40
0.5
  9
$CHAMFERB
 40
0.5
  9
$CHAMFERC
 40
1.0
  9
$CHAMFERD
 40
0.0
  9
$SKPOLY
 70
     0
  9
$TDCREATE
 40
2456997.596924664
  9
$TDUCREATE
 40
2456997.555257997
  9
$TDUPDATE
 40
2456997.596924849
  9
$TDUUPDATE
 40
2456997.555258183
  9
$TDINDWG
 40
0.0000000116
  9
$TDUSRTIMER
 40
0.0000000116
  9
$USRTIMER
 70
     1
  9
$ANGBASE
 50
0.0
  9
$ANGDIR
 70
     0
  9
$PDMODE
 70
     0
  9
$PDSIZE
 40
0.0
  9
$PLINEWID
 40
0.0
  9
$SPLFRAME
 70
     0
  9
$SPLINETYPE
 70
     6
  9
$SPLINESEGS
 70
     8
  9
$HANDSEED
  5
1CD
  9
$SURFTAB1
 70
     6
  9
$SURFTAB2
 70
     6
  9
$SURFTYPE
 70
     6
  9
$SURFU
 70
     6
  9
$SURFV
 70
     6
  9
$UCSBASE
  2

  9
$UCSNAME
  2

  9
$UCSORG
 10
0.0
 20
0.0
 30
0.0
  9
$UCSXDIR
 10
1.0
 20
0.0
 30
0.0
  9
$UCSYDIR
 10
0.0
 20
1.0
 30
0.0
  9
$UCSORTHOREF
  2

  9
$UCSORTHOVIEW
 70
     0
  9
$UCSORGTOP
 10
0.0
 20
0.0
 30
0.0
  9
$UCSORGBOTTOM
 10
0.0
 20
0.0
 30
0.0
  9
$UCSORGLEFT
 10
0.0
 20
0.0
 30
0.0
  9
$UCSORGRIGHT
 10
0.0
 20
0.0
 30
0.0
  9
$UCSORGFRONT
 10
0.0
 20
0.0
 30
0.0
  9
$UCSORGBACK
 10
0.0
 20
0.0
 30
0.0
  9
$PUCSBASE
  2

  9
$PUCSNAME
  2

  9
$PUCSORG
 10
0.0
 20
0.0
 30
0.0
  9
$PUCSXDIR
 10
1.0
 20
0.0
 30
0.0
  9
$PUCSYDIR
 10
0.0
 20
1.0
 30
0.0
  9
$PUCSORTHOREF
  2

  9
$PUCSORTHOVIEW
 70
     0
  9
$PUCSORGTOP
 10
0.0
 20
0.0
 30
0.0
  9
$PUCSORGBOTTOM
 10
0.0
 20
0.0
 30
0.0
  9
$PUCSORGLEFT
 10
0.0
 20
0.0
 30
0.0
  9
$PUCSORGRIGHT
 10
0.0
 20
0.0
 30
0.0
  9
$PUCSORGFRONT
 10
0.0
 20
0.0
 30
0.0
  9
$PUCSORGBACK
 10
0.0
 20
0.0
 30
0.0
  9
$USERI1
 70
     0
  9
$USERI2
 70
     0
  9
$USERI3
 70
     0
  9
$USERI4
 70
     0
  9
$USERI5
 70
     0
  9
$USERR1
 40
18.1
  9
$USERR2
 40
0.0
  9
$USERR3
 40
0.0
  9
$USERR4
 40
0.0
  9
$USERR5
 40
0.0
  9
$WORLDVIEW
 70
     1
  9
$SHADEDGE
 70
     3
  9
$SHADEDIF
 70
    70
  9
$TILEMODE
 70
     1
  9
$MAXACTVP
 70
    64
  9
$PINSBASE
 10
0.0
 20
0.0
 30
0.0
  9
$PLIMCHECK
 70
     0
  9
$PEXTMIN
 10
1.00000000000000E+20
 20
1.00000000000000E+20
 30
1.00000000000000E+20
  9
$PEXTMAX
 10
-1.00000000000000E+20
 20
-1.00000000000000E+20
 30
-1.00000000000000E+20
  9
$PLIMMIN
 10
0.0
 20
0.0
  9
$PLIMMAX
 10
12.0
 20
9.0
  9
$UNITMODE
 70
     0
  9
$VISRETAIN
 70
     1
  9
$PLINEGEN
 70
     0
  9
$PSLTSCALE
 70
     1
  9
$TREEDEPTH
 70
  3020
  9
$CMLSTYLE
  2
Standard
  9
$CMLJUST
 70
     0
  9
$CMLSCALE
 40
1.0
  9
$PROXYGRAPHICS
 70
     1
  9
$MEASUREMENT
 70
     1
  9
$CELWEIGHT
370
    -1
  9
$ENDCAPS
280
     0
  9
$JOINSTYLE
280
     0
  9
$LWDISPLAY
290
     0
  9
$INSUNITS
 70
     4
  9
$HYPERLINKBASE
  1

  9
$STYLESHEET
  1

  9
$XEDIT
290
     1
  9
$CEPSNTYPE
380
     0
  9
$PSTYLEMODE
290
     1
  9
$FINGERPRINTGUID
  2
{B886BFF6-58C1-49AD-A31A-FD68D939A91F}
  9
$VERSIONGUID
  2
{FAEB1C32-E019-11D5-929B-00C0DF256EC4}
  9
$EXTNAMES
290
     1
  9
$PSVPSCALE
 40
0.0
  9
$OLESTARTUP
290
     0
  0
ENDSEC
  0
SECTION
  2
CLASSES
  0
CLASS
  1
ACDBDICTIONARYWDFLT
  2
AcDbDictionaryWithDefault
  3
ObjectDBX Classes
 90
        0
280
     0
281
     0
  0
CLASS
  1
VISUALSTYLE
  2
AcDbVisualStyle
  3
ObjectDBX Classes
 90
     4095
280
     0
281
     0
  0
CLASS
  1
MATERIAL
  2
AcDbMaterial
  3
ObjectDBX Classes
 90
     1153
280
     0
281
     0
  0
CLASS
  1
DICTIONARYVAR
  2
AcDbDictionaryVar
  3
ObjectDBX Classes
 90
        0
280
     0
281
     0
  0
CLASS
  1
ACDBPLACEHOLDER
  2
AcDbPlaceHolder
  3
ObjectDBX Classes
 90
        0
280
     0
281
     0
  0
CLASS
  1
LAYOUT
  2
AcDbLayout
  3
ObjectDBX Classes
 90
        0
280
     0
281
     0
  0
ENDSEC
  0
SECTION
  2
TABLES
  0
TABLE
  2
VPORT
  5
8
330
0
100
AcDbSymbolTable
 70
     1
  0
VPORT
  5
29
330
8
100
AcDbSymbolTableRecord
100
AcDbViewportTableRecord
  2
*Active
 70
     0
 10
0.0
 20
0.0
 11
1.0
 21
1.0
 12
105.0000000000001
 22
148.5000000000001
 13
0.0
 23
0.0
 14
0.5
 24
0.5
 15
0.5
 25
0.5
 16
0.0
 26
0.0
 36
1.0
 17
0.0
 27
0.0
 37
0.0
 40
326.7000000000002
 41
1.60267857142857
 42
50.0
 43
0.0
 44
0.0
 50
0.0
 51
0.0
 71
     0
 72
   100
 73
     1
 74
     3
 75
     0
 76
     0
 77
     0
 78
     0
281
     0
 65
     1
110
0.0
120
0.0
130
0.0
111
1.0
121
0.0
131
0.0
112
0.0
122
1.0
132
0.0
 79
     0
146
0.0
  0
ENDTAB
  0
TABLE
  2
LTYPE
  5
5
330
0
100
AcDbSymbolTable
 70
     8
  0
LTYPE
  5
14
330
5
100
AcDbSymbolTableRecord
100
AcDbLinetypeTableRecord
  2
ByBlock
 70
     0
  3

 72
    65
 73
     0
 40
0.0
  0
LTYPE
  5
15
330
5
100
AcDbSymbolTableRecord
100
AcDbLinetypeTableRecord
  2
ByLayer
 70
     0
  3

 72
    65
 73
     0
 40
0.0
  0
LTYPE
  5
16
330
5
100
AcDbSymbolTableRecord
100
AcDbLinetypeTableRecord
  2
Continuous
 70
     0
  3
Solid line
 72
    65
 73
     0
 40
0.0
  0
LTYPE
  5
3F
330
5
100
AcDbSymbolTableRecord
100
AcDbLinetypeTableRecord
  2
DASHED
 70
     0
  3
Dashed
 72
    65
 73
     2
 40
15.0
 49
7.0
 74
     0
 49
-8.0
 74
     0
  0
LTYPE
  5
40
330
5
100
AcDbSymbolTableRecord
100
AcDbLinetypeTableRecord
  2
DOTTED
 70
     0
  3
Dotted
 72
    65
 73
     2
 40
1.0
 49
0.0
 74
     0
 49
-1.0
 74
     0
  0
LTYPE
  5
41
330
5
100
AcDbSymbolTableRecord
100
AcDbLinetypeTableRecord
  2
DOT_CENTER
 70
     0
  3
Dot_Center
 72
    65
 73
     4
 40
14.0
 49
12.0
 74
     0
 49
-1.0
 74
     0
 49
0.0
 74
     0
 49
-1.0
 74
     0
  0
LTYPE
  5
42
330
5
100
AcDbSymbolTableRecord
100
AcDbLinetypeTableRecord
  2
LONG_DASHED
 70
     0
  3
Long_Dashed
 72
    65
 73
     2
 40
15.0
 49
10.0
 74
     0
 49
-5.0
 74
     0
  0
LTYPE
  5
43
330
5
100
AcDbSymbolTableRecord
100
AcDbLinetypeTableRecord
  2
DASH_CENTER
 70
     0
  3
Dash_Center
 72
    65
 73
     4
 40
14.0
 49
11.0
 74
     0
 49
-1.0
 74
     0
 49
1.0
 74
     0
 49
-1.0
 74
     0
  0
LTYPE
  5
44
330
5
100
AcDbSymbolTableRecord
100
AcDbLinetypeTableRecord
  2
PHANTOM
 70
     0
  3
Phantom
 72
    65
 73
     6
 40
13.0
 49
10.0
 74
     0
 49
-1.0
 74
     0
 49
0.0
 74
     0
 49
-1.0
 74
     0
 49
0.0
 74
     0
 49
-1.0
 74
     0
  0
LTYPE
  5
45
330
5
100
AcDbSymbolTableRecord
100
AcDbLinetypeTableRecord
  2
CENTER_DASH_DASH
 70
     0
  3
Center_Dash_Dash
 72
    65
 73
     6
 40
14.0
 49
9.0
 74
     0
 49
-1.0
 74
     0
 49
1.0
 74
     0
 49
-1.0
 74
     0
 49
1.0
 74
     0
 49
-1.0
 74
     0
  0
ENDTAB
  0
TABLE
  2
LAYER
  5
2
330
0
100
AcDbSymbolTable
 70
     2
  0
LAYER
  5
10
330
2
100
AcDbSymbolTableRecord
100
AcDbLayerTableRecord
  2
0
 70
     0
 62
     7
  6
Continuous
370
    -3
390
F
  0
LAYER
  5
46
330
2
100
AcDbSymbolTableRecord
100
AcDbLayerTableRecord
  2
1
 70
     0
 62
     7
  6
Continuous
370
    -3
390
F
  0
ENDTAB
  0
TABLE
  2
STYLE
  5
3
330
0
100
AcDbSymbolTable
 70
     4
  0
STYLE
  5
11
330
3
100
AcDbSymbolTableRecord
100
AcDbTextStyleTableRecord
  2
Standard
 70
     0
 40
0.0
 41
1.0
 50
0.0
 71
     0
 42
0.2
  3
txt
  4

  0
STYLE
  5
9B
330
3
100
AcDbSymbolTableRecord
100
AcDbTextStyleTableRecord
  2
CONVERTER_11
 70
     0
 40
0.0
 41
1.2
 50
0.0
 71
     0
 42
0.2
  3
ARIAL.TTF
  4

  0
STYLE
  5
A4
330
3
100
AcDbSymbolTableRecord
100
AcDbTextStyleTableRecord
  2
CONVERTER_12
 70
     0
 40
0.0
 41
1.38
 50
0.0
 71
     0
 42
0.2
  3
ARIAL.TTF
  4

  0
STYLE
  5
17B
330
3
100
AcDbSymbolTableRecord
100
AcDbTextStyleTableRecord
  2
CONVERTER_13
 70
     0
 40
0.0
 41
0.95
 50
0.0
 71
     0
 42
0.2
  3
simplex.shx
  4

  0
ENDTAB
  0
TABLE
  2
VIEW
  5
6
330
0
100
AcDbSymbolTable
 70
     0
  0
ENDTAB
  0
TABLE
  2
UCS
  5
7
330
0
100
AcDbSymbolTable
 70
     0
  0
ENDTAB
  0
TABLE
  2
APPID
  5
9
330
0
100
AcDbSymbolTable
 70
     1
  0
APPID
  5
12
330
9
100
AcDbSymbolTableRecord
100
AcDbRegAppTableRecord
  2
ACAD
 70
     0
  0
ENDTAB
  0
TABLE
  2
DIMSTYLE
  5
A
330
0
100
AcDbSymbolTable
 70
     5
100
AcDbDimStyleTable
  0
DIMSTYLE
105
27
330
A
100
AcDbSymbolTableRecord
100
AcDbDimStyleTableRecord
  2
Standard
 70
     0
178
     0
340
11
  0
DIMSTYLE
105
17F
102
{ACAD_REACTORS
330
180
102
}
330
A
100
AcDbSymbolTableRecord
100
AcDbDimStyleTableRecord
  2
ME10_DIM_10
 70
     0
 41
3.0
 42
0.5
 44
1.0
 73
     0
 74
     0
 77
     1
 78
     8
140
3.0
147
2.0
172
     1
173
     1
174
     1
175
     1
176
     2
177
     2
271
     2
178
     4
271
     2
340
17B
  0
DIMSTYLE
105
18A
102
{ACAD_REACTORS
330
18B
102
}
330
A
100
AcDbSymbolTableRecord
100
AcDbDimStyleTableRecord
  2
ME10_DIM_11
 70
     0
 41
3.0
 42
0.5
 44
1.0
 73
     0
 74
     0
 77
     1
 78
     8
140
3.0
147
2.0
172
     1
173
     1
174
     1
175
     1
176
     2
177
     2
271
     2
178
     4
271
     2
340
17B
  0
DIMSTYLE
105
195
102
{ACAD_REACTORS
330
196
102
}
330
A
100
AcDbSymbolTableRecord
100
AcDbDimStyleTableRecord
  2
ME10_DIM_12
 70
     0
 41
3.0
 42
0.5
 44
1.0
 73
     0
 74
     0
 77
     1
 78
     8
140
3.0
147
2.0
172
     1
173
     1
174
     1
175
     1
176
     2
177
     2
271
     2
178
     4
271
     2
340
17B
  0
DIMSTYLE
105
1A0
102
{ACAD_REACTORS
330
1A1
102
}
330
A
100
AcDbSymbolTableRecord
100
AcDbDimStyleTableRecord
  2
ME10_DIM_13
 70
     0
 41
3.0
 42
0.5
 44
1.0
 73
     0
 74
     0
 77
     1
 78
     8
140
3.0
147
2.0
172
     1
173
     1
174
     1
175
     1
176
     2
177
     2
271
     2
178
     4
271
     2
340
17B
  0
ENDTAB
  0
TABLE
  2
BLOCK_RECORD
  5
1
330
0
100
AcDbSymbolTable
 70
     7
  0
BLOCK_RECORD
  5
1F
330
1
100
AcDbSymbolTableRecord
100
AcDbBlockTableRecord
  2
*Model_Space
340
22
  0
BLOCK_RECORD
  5
1B
330
1
100
AcDbSymbolTableRecord
100
AcDbBlockTableRecord
  2
*Paper_Space
340
1E
  0
BLOCK_RECORD
  5
23
330
1
100
AcDbSymbolTableRecord
100
AcDbBlockTableRecord
  2
*Paper_Space0
340
26
  0
BLOCK_RECORD
  5
47
330
1
100
AcDbSymbolTableRecord
100
AcDbBlockTableRecord
  2
_formato_A4
340
0
102
{BLKREFS
331
4B
102
}
  0
BLOCK_RECORD
  5
4A
330
1
100
AcDbSymbolTableRecord
100
AcDbBlockTableRecord
  2
A4
340
0
102
{BLKREFS
331
4E
102
}
  0
BLOCK_RECORD
  5
175
330
1
100
AcDbSymbolTableRecord
100
AcDbBlockTableRecord
  2
*D3
340
0
  0
BLOCK_RECORD
  5
181
330
1
100
AcDbSymbolTableRecord
100
AcDbBlockTableRecord
  2
*D4
340
0
  0
BLOCK_RECORD
  5
18C
330
1
100
AcDbSymbolTableRecord
100
AcDbBlockTableRecord
  2
*D5
340
0
  0
BLOCK_RECORD
  5
197
330
1
100
AcDbSymbolTableRecord
100
AcDbBlockTableRecord
  2
*D6
340
0
  0
ENDTAB
  0
ENDSEC
  0
SECTION
  2
BLOCKS
  0
BLOCK
  5
20
330
1F
100
AcDbEntity
  8
0
100
AcDbBlockBegin
  2
*Model_Space
 70
     0
 10
0.0
 20
0.0
 30
0.0
  3
*Model_Space
  1

  0
ENDBLK
  5
21
330
1F
100
AcDbEntity
  8
0
100
AcDbBlockEnd
  0
BLOCK
  5
1C
330
1B
100
AcDbEntity
 67
     1
  8
0
100
AcDbBlockBegin
  2
*Paper_Space
 70
     0
 10
0.0
 20
0.0
 30
0.0
  3
*Paper_Space
  1

  0
ENDBLK
  5
1D
330
1B
100
AcDbEntity
 67
     1
  8
0
100
AcDbBlockEnd
  0
BLOCK
  5
24
330
23
100
AcDbEntity
  8
0
100
AcDbBlockBegin
  2
*Paper_Space0
 70
     0
 10
0.0
 20
0.0
 30
0.0
  3
*Paper_Space0
  1

  0
ENDBLK
  5
25
330
23
100
AcDbEntity
  8
0
100
AcDbBlockEnd
  0
BLOCK
  5
48
330
47
100
AcDbEntity
  8
0
100
AcDbBlockBegin
  2
_formato_A4
 70
     0
 10
210.0000000000001
 20
0.0
 30
0.0
  3
_formato_A4
  1

  0
LINE
  5
4F
330
47
100
AcDbEntity
  8
1
  6
Continuous
 62
     7
100
AcDbLine
 10
21.00000000000011
 20
20.0
 30
0.0
 11
205.0000000000001
 21
20.0
 31
0.0
  0
LINE
  5
50
330
47
100
AcDbEntity
  8
1
  6
Continuous
 62
     7
100
AcDbLine
 10
21.00000000000011
 20
4.99999999999989
 30
0.0
 11
205.0000000000001
 21
4.99999999999989
 31
0.0
  0
LINE
  5
51
330
47
100
AcDbEntity
  8
1
  6
Continuous
 62
     7
100
AcDbLine
 10
46.00000000000023
 20
35.0
 30
0.0
 11
46.00000000000023
 21
40.0
 31
0.0
  0
LINE
  5
52
330
47
100
AcDbEntity
  8
1
  6
Continuous
 62
     7
100
AcDbLine
 10
28.00000000000011
 20
35.0
 30
0.0
 11
28.00000000000011
 21
40.0
 31
0.0
  0
LINE
  5
53
330
47
100
AcDbEntity
  8
1
  6
Continuous
 62
     7
100
AcDbLine
 10
21.00000000000011
 20
40.0
 30
0.0
 11
205.0000000000001
 21
40.0
 31
0.0
  0
LINE
  5
54
330
47
100
AcDbEntity
  8
1
  6
Continuous
 62
     7
100
AcDbLine
 10
46.00000000000023
 20
30.0
 30
0.0
 11
46.00000000000023
 21
35.0
 31
0.0
  0
LINE
  5
55
330
47
100
AcDbEntity
  8
1
  6
Continuous
 62
     7
100
AcDbLine
 10
28.00000000000011
 20
30.0
 30
0.0
 11
28.00000000000011
 21
35.0
 31
0.0
  0
LINE
  5
56
330
47
100
AcDbEntity
  8
1
  6
Continuous
 62
     7
100
AcDbLine
 10
21.00000000000011
 20
35.0
 30
0.0
 11
205.0000000000001
 21
35.0
 31
0.0
  0
LINE
  5
57
330
47
100
AcDbEntity
  8
1
  6
Continuous
 62
     7
100
AcDbLine
 10
46.00000000000023
 20
25.0
 30
0.0
 11
46.00000000000023
 21
30.0
 31
0.0
  0
LINE
  5
58
330
47
100
AcDbEntity
  8
1
  6
Continuous
 62
     7
100
AcDbLine
 10
28.00000000000011
 20
25.0
 30
0.0
 11
28.00000000000011
 21
30.0
 31
0.0
  0
LINE
  5
59
330
47
100
AcDbEntity
  8
1
  6
Continuous
 62
     7
100
AcDbLine
 10
21.00000000000011
 20
30.0
 30
0.0
 11
205.0000000000001
 21
30.0
 31
0.0
  0
LINE
  5
5A
330
47
100
AcDbEntity
  8
1
  6
Continuous
 62
     7
100
AcDbLine
 10
46.00000000000023
 20
20.0
 30
0.0
 11
46.00000000000023
 21
25.0
 31
0.0
  0
LINE
  5
5B
330
47
100
AcDbEntity
  8
1
  6
Continuous
 62
     7
100
AcDbLine
 10
28.00000000000011
 20
20.0
 30
0.0
 11
28.00000000000011
 21
25.0
 31
0.0
  0
LINE
  5
5C
330
47
100
AcDbEntity
  8
1
  6
Continuous
 62
     7
100
AcDbLine
 10
21.00000000000011
 20
25.0
 30
0.0
 11
205.0000000000001
 21
25.0
 31
0.0
  0
LINE
  5
5D
102
{ACAD_REACTORS
330
A6
102
}
330
47
100
AcDbEntity
  8
1
  6
Continuous
 62
     7
100
AcDbLine
 10
195.8428748399059
 20
10.55800208038033
 30
0.0
 11
194.5095415065727
 21
9.78877131114973
 31
0.0
  0
LINE
  5
5E
102
{ACAD_REACTORS
330
A6
102
}
330
47
100
AcDbEntity
  8
1
  6
Continuous
 62
     7
100
AcDbLine
 10
194.6763006887428
 20
10.65463653264794
 30
0.0
 11
195.5097265375796
 21
11.13545913774624
 31
0.0
  0
LINE
  5
5F
102
{ACAD_REACTORS
330
A6
102
}
330
47
100
AcDbEntity
  8
1
  6
Continuous
 62
     7
100
AcDbLine
 10
194.6763006887428
 20
12.16666666666663
 30
0.0
 11
194.6763006887428
 21
10.65463653264794
 31
0.0
  0
LINE
  5
60
102
{ACAD_REACTORS
330
A6
102
}
330
47
100
AcDbEntity
  8
1
  6
Continuous
 62
     7
100
AcDbLine
 10
195.6763006887428
 20
12.16666666666663
 30
0.0
 11
194.6763006887428
 21
12.16666666666663
 31
0.0
  0
LINE
  5
61
102
{ACAD_REACTORS
330
A6
102
}
330
47
100
AcDbEntity
  8
1
  6
Continuous
 62
     7
100
AcDbLine
 10
194.6763006887428
 20
12.83333333333326
 30
0.0
 11
195.6763006887428
 21
12.83333333333326
 31
0.0
  0
LINE
  5
62
102
{ACAD_REACTORS
330
A6
102
}
330
47
100
AcDbEntity
  8
1
  6
Continuous
 62
     7
100
AcDbLine
 10
194.6763006887428
 20
14.34536346735194
 30
0.0
 11
194.6763006887428
 21
12.83333333333326
 31
0.0
  0
LINE
  5
63
102
{ACAD_REACTORS
330
A6
102
}
330
47
100
AcDbEntity
  8
1
  6
Continuous
 62
     7
100
AcDbLine
 10
195.5097265375796
 20
13.86454086225376
 30
0.0
 11
194.6763006887428
 21
14.34536346735194
 31
0.0
  0
LINE
  5
64
102
{ACAD_REACTORS
330
A6
102
}
330
47
100
AcDbEntity
  8
1
  6
Continuous
 62
     7
100
AcDbLine
 10
194.5095415065727
 20
15.21122868885027
 30
0.0
 11
195.8428748399059
 21
14.44199791961944
 31
0.0
  0
LINE
  5
65
102
{ACAD_REACTORS
330
A7
102
}
330
47
100
AcDbEntity
  8
1
  6
Continuous
 62
     7
100
AcDbLine
 10
187.3429673554094
 20
10.84673060906323
 30
0.0
 11
187.3429673554094
 21
14.15326939093666
 31
0.0
  0
LINE
  5
66
102
{ACAD_REACTORS
330
A7
102
}
330
47
100
AcDbEntity
  8
1
  6
Continuous
 62
     7
100
AcDbLine
 10
188.0096340220761
 20
11.0392519172633
 30
0.0
 11
188.0096340220761
 21
10.84673060906323
 31
0.0
  0
LINE
  5
67
102
{ACAD_REACTORS
330
A7
102
}
330
47
100
AcDbEntity
  8
1
  6
Continuous
 62
     7
100
AcDbLine
 10
188.0096340220761
 20
14.15326939093666
 30
0.0
 11
188.0096340220761
 21
11.0392519172633
 31
0.0
  0
LINE
  5
68
102
{ACAD_REACTORS
330
A8
102
}
330
47
100
AcDbEntity
  8
1
  6
Continuous
 62
     7
100
AcDbLine
 10
191.1763932042462
 20
8.44261746499581
 30
0.0
 11
189.0098190530831
 21
9.69256409066691
 31
0.0
  0
LINE
  5
69
102
{ACAD_REACTORS
330
A8
102
}
330
47
100
AcDbEntity
  8
1
  6
Continuous
 62
     7
100
AcDbLine
 10
189.3429673554094
 20
10.2700211480327
 30
0.0
 11
191.5095415065727
 21
9.0200745223616
 31
0.0
  0
LINE
  5
6A
102
{ACAD_REACTORS
330
A8
102
}
330
47
100
AcDbEntity
  8
1
  6
Continuous
 62
     7
100
AcDbLine
 10
189.3429673554094
 20
14.92250016016737
 30
0.0
 11
189.3429673554094
 21
10.2700211480327
 31
0.0
  0
LINE
  5
6B
102
{ACAD_REACTORS
330
A8
102
}
330
47
100
AcDbEntity
  8
1
  6
Continuous
 62
     7
100
AcDbLine
 10
188.6763006887428
 20
10.27002114803258
 30
0.0
 11
188.6763006887428
 21
14.92250016016737
 31
0.0
  0
LINE
  5
6C
102
{ACAD_REACTORS
330
A9
102
}
330
47
100
AcDbEntity
  8
1
  6
Continuous
 62
     7
100
AcDbLine
 10
192.8485336717861
 20
15.86370041827229
 30
0.0
 11
191.6763006887428
 21
13.83333333333326
 31
0.0
  0
LINE
  5
6D
102
{ACAD_REACTORS
330
A9
102
}
330
47
100
AcDbEntity
  8
1
  6
Continuous
 62
     7
100
AcDbLine
 10
193.3429673554094
 20
9.3082690706018
 30
0.0
 11
193.3429673554094
 21
15.73121731203457
 31
0.0
  0
LINE
  5
6E
102
{ACAD_REACTORS
330
A9
102
}
330
47
100
AcDbEntity
  8
1
  6
Continuous
 62
     7
100
AcDbLine
 10
192.6763006887428
 20
12.5
 30
0.0
 11
192.6763006887428
 21
9.3082690706018
 31
0.0
  0
LINE
  5
6F
102
{ACAD_REACTORS
330
A9
102
}
330
47
100
AcDbEntity
  8
1
  6
Continuous
 62
     7
100
AcDbLine
 10
190.6763006887428
 20
10.84758507263291
 30
0.0
 11
190.6763006887428
 21
12.5
 31
0.0
  0
LINE
  5
70
102
{ACAD_REACTORS
330
A9
102
}
330
47
100
AcDbEntity
  8
1
  6
Continuous
 62
     7
100
AcDbLine
 10
190.0096340220761
 20
12.5
 30
0.0
 11
190.0096340220761
 21
10.84758507263291
 31
0.0
  0
LINE
  5
71
102
{ACAD_REACTORS
330
A9
102
}
330
47
100
AcDbEntity
  8
1
  6
Continuous
 62
     7
100
AcDbLine
 10
190.5040677056995
 20
15.86370041827229
 30
0.0
 11
191.6763006887428
 21
13.83333333333326
 31
0.0
  0
LINE
  5
72
102
{ACAD_REACTORS
330
A9
102
}
330
47
100
AcDbEntity
  8
1
  6
Continuous
 62
     7
100
AcDbLine
 10
190.0096340220761
 20
12.5
 30
0.0
 11
190.0096340220761
 21
15.73121731203457
 31
0.0
  0
LINE
  5
73
330
47
100
AcDbEntity
  8
1
  6
Continuous
 62
     7
100
AcDbLine
 10
191.6763006887428
 20
7.5
 30
0.0
 11
183.2598654136012
 21
12.35563573565855
 31
0.0
  0
LINE
  5
74
330
47
100
AcDbEntity
  8
1
  6
Continuous
 62
     7
100
AcDbLine
 10
200.0927359638843
 20
12.35563573565855
 30
0.0
 11
191.6763006887428
 21
7.5
 31
0.0
  0
LINE
  5
75
330
47
100
AcDbEntity
  8
1
  6
Continuous
 62
     7
100
AcDbLine
 10
191.6763006887428
 20
17.5
 30
0.0
 11
200.0927359638843
 21
12.64436426434133
 31
0.0
  0
LINE
  5
76
330
47
100
AcDbEntity
  8
1
  6
Continuous
 62
     7
100
AcDbLine
 10
183.2598654136012
 20
12.64436426434133
 30
0.0
 11
191.6763006887428
 21
17.5
 31
0.0
  0
LINE
  5
77
102
{ACAD_REACTORS
330
A9
102
}
330
47
100
AcDbEntity
  8
1
  6
Continuous
 62
     7
100
AcDbLine
 10
190.6763006887428
 20
14.23205080756884
 30
0.0
 11
190.6763006887428
 21
12.5
 31
0.0
  0
LINE
  5
78
102
{ACAD_REACTORS
330
A9
102
}
330
47
100
AcDbEntity
  8
1
  6
Continuous
 62
     7
100
AcDbLine
 10
191.5319631214453
 20
12.75
 30
0.0
 11
190.6763006887428
 21
14.23205080756884
 31
0.0
  0
LINE
  5
79
102
{ACAD_REACTORS
330
A9
102
}
330
47
100
AcDbEntity
  8
1
  6
Continuous
 62
     7
100
AcDbLine
 10
192.6763006887428
 20
14.23205080756884
 30
0.0
 11
191.8206382560402
 21
12.75
 31
0.0
  0
LINE
  5
7A
102
{ACAD_REACTORS
330
A9
102
}
330
47
100
AcDbEntity
  8
1
  6
Continuous
 62
     7
100
AcDbLine
 10
192.6763006887428
 20
12.5
 30
0.0
 11
192.6763006887428
 21
14.23205080756884
 31
0.0
  0
LINE
  5
7B
102
{ACAD_REACTORS
330
A6
102
}
330
47
100
AcDbEntity
  8
1
  6
Continuous
 62
     7
100
AcDbLine
 10
194.0096340220762
 20
10.07749983983263
 30
0.0
 11
194.0096340220762
 21
14.92250016016737
 31
0.0
  0
LINE
  5
7C
330
47
100
AcDbEntity
  8
1
  6
Continuous
 62
     7
100
AcDbLine
 10
21.00000000000011
 20
292.0000000000001
 30
0.0
 11
21.00000000000011
 21
4.99999999999989
 31
0.0
  0
LINE
  5
7D
330
47
100
AcDbEntity
  8
1
  6
Continuous
 62
     7
100
AcDbLine
 10
205.0000000000001
 20
292.0000000000001
 30
0.0
 11
21.00000000000011
 21
292.0000000000001
 31
0.0
  0
LINE
  5
7E
330
47
100
AcDbEntity
  8
1
  6
Continuous
 62
     7
100
AcDbLine
 10
205.0000000000001
 20
4.99999999999989
 30
0.0
 11
205.0000000000001
 21
292.0000000000001
 31
0.0
  0
LINE
  5
7F
330
47
100
AcDbEntity
  8
1
  6
Continuous
 62
     7
100
AcDbLine
 10
210.0000000000001
 20
297.0000000000001
 30
0.0
 11
0.0
 21
297.0000000000001
 31
0.0
  0
LINE
  5
80
330
47
100
AcDbEntity
  8
1
  6
Continuous
 62
     7
100
AcDbLine
 10
0.0
 20
297.0000000000001
 30
0.0
 11
0.0
 21
0.0
 31
0.0
  0
LINE
  5
81
330
47
100
AcDbEntity
  8
1
  6
Continuous
 62
     7
100
AcDbLine
 10
0.0
 20
0.0
 30
0.0
 11
210.0000000000001
 21
0.0
 31
0.0
  0
LINE
  5
82
330
47
100
AcDbEntity
  8
1
  6
Continuous
 62
     7
100
AcDbLine
 10
210.0000000000001
 20
0.0
 30
0.0
 11
210.0000000000001
 21
297.0000000000001
 31
0.0
  0
LINE
  5
83
330
47
100
AcDbEntity
  8
1
  6
Continuous
 62
     7
100
AcDbLine
 10
0.0
 20
148.4999999999998
 30
0.0
 11
15.0
 21
148.4999999999998
 31
0.0
  0
LINE
  5
84
330
47
100
AcDbEntity
  8
1
  6
Continuous
 62
     7
100
AcDbLine
 10
21.00000000000011
 20
9.99999999999986
 30
0.0
 11
51.00000000000011
 21
9.99999999999986
 31
0.0
  0
LINE
  5
85
330
47
100
AcDbEntity
  8
1
  6
Continuous
 62
     7
100
AcDbLine
 10
51.00000000000011
 20
20.0
 30
0.0
 11
51.00000000000011
 21
5.0
 31
0.0
  0
LINE
  5
86
330
47
100
AcDbEntity
  8
1
  6
Continuous
 62
     7
100
AcDbLine
 10
178.3526013774855
 20
20.0
 30
0.0
 11
178.3526013774855
 21
5.0
 31
0.0
  0
LINE
  5
87
330
47
100
AcDbEntity
  8
1
  6
Continuous
 62
     7
100
AcDbLine
 10
161.0000000000001
 20
20.0
 30
0.0
 11
161.0000000000001
 21
5.0
 31
0.0
  0
LINE
  5
88
330
47
100
AcDbEntity
  8
1
  6
Continuous
 62
     7
100
AcDbLine
 10
21.00000000000011
 20
20.0
 30
0.0
 11
21.00000000000011
 21
4.99999999999989
 31
0.0
  0
LINE
  5
89
330
47
100
AcDbEntity
  8
1
  6
Continuous
 62
     7
100
AcDbLine
 10
21.00000000000011
 20
14.99999999999989
 30
0.0
 11
51.00000000000011
 21
14.99999999999989
 31
0.0
  0
ARC
  5
8A
102
{ACAD_REACTORS
330
A6
102
}
330
47
100
AcDbEntity
  8
1
  6
Continuous
 62
     7
100
AcDbCircle
 10
195.6763006887428
 20
10.84673060906323
 30
0.0
 40
0.3333333333333172
100
AcDbArc
 50
299.9816393688334
 51
119.9816393688365
  0
ARC
  5
8B
102
{ACAD_REACTORS
330
A6
102
}
330
47
100
AcDbEntity
  8
1
  6
Continuous
 62
     7
100
AcDbCircle
 10
195.6763006887428
 20
12.5
 30
0.0
 40
0.3333333333333695
100
AcDbArc
 50
270.0
 51
90.0
  0
ARC
  5
8C
102
{ACAD_REACTORS
330
A6
102
}
330
47
100
AcDbEntity
  8
1
  6
Continuous
 62
     7
100
AcDbCircle
 10
195.6763006887428
 20
14.15326939093666
 30
0.0
 40
0.3333333333333613
100
AcDbArc
 50
240.018360631154
 51
60.01836063115638
  0
ARC
  5
8D
102
{ACAD_REACTORS
330
A7
102
}
330
47
100
AcDbEntity
  8
1
  6
Continuous
 62
     7
100
AcDbCircle
 10
187.6763006887428
 20
10.84673060906323
 30
0.0
 40
0.3333333333333997
100
AcDbArc
 50
180.0
 51
0.0
  0
ARC
  5
8E
102
{ACAD_REACTORS
330
A7
102
}
330
47
100
AcDbEntity
  8
1
  6
Continuous
 62
     7
100
AcDbCircle
 10
187.6763006887428
 20
14.15326939093666
 30
0.0
 40
0.3333333333333144
100
AcDbArc
 50
0.0
 51
180.0
  0
ARC
  5
8F
102
{ACAD_REACTORS
330
A8
102
}
330
47
100
AcDbEntity
  8
1
  6
Continuous
 62
     7
100
AcDbCircle
 10
191.3429673554094
 20
8.7313459936787
 30
0.0
 40
0.3333333333333567
100
AcDbArc
 50
240.0183606311536
 51
60.01836063113668
  0
ARC
  5
90
102
{ACAD_REACTORS
330
A8
102
}
330
47
100
AcDbEntity
  8
1
  6
Continuous
 62
     7
100
AcDbCircle
 10
189.0096340220761
 20
14.92250016016737
 30
0.0
 40
0.333333333333286
100
AcDbArc
 50
0.0
 51
180.0
  0
ARC
  5
91
102
{ACAD_REACTORS
330
A9
102
}
330
47
100
AcDbEntity
  8
1
  6
Continuous
 62
     7
100
AcDbCircle
 10
193.0780011429341
 20
15.73121731203457
 30
0.0
 40
0.2649662124752865
100
AcDbArc
 50
0.0
 51
149.9999999999716
  0
ARC
  5
92
102
{ACAD_REACTORS
330
A9
102
}
330
47
100
AcDbEntity
  8
1
  6
Continuous
 62
     7
100
AcDbCircle
 10
193.0096340220762
 20
9.3082690706018
 30
0.0
 40
0.3333333333333997
100
AcDbArc
 50
180.0
 51
0.0
  0
ARC
  5
93
102
{ACAD_REACTORS
330
A9
102
}
330
47
100
AcDbEntity
  8
1
  6
Continuous
 62
     7
100
AcDbCircle
 10
190.3429673554094
 20
10.84758507263291
 30
0.0
 40
0.333333333333286
100
AcDbArc
 50
180.0
 51
0.0
  0
ARC
  5
94
102
{ACAD_REACTORS
330
A9
102
}
330
47
100
AcDbEntity
  8
1
  6
Continuous
 62
     7
100
AcDbCircle
 10
190.2746002345514
 20
15.73121731203457
 30
0.0
 40
0.2649662124752854
100
AcDbArc
 50
30.00000000001921
 51
180.0
  0
ARC
  5
95
102
{ACAD_REACTORS
330
A6
102
}
330
47
100
AcDbEntity
  8
1
  6
Continuous
 62
     7
100
AcDbCircle
 10
194.3429673554094
 20
10.07749983983263
 30
0.0
 40
0.3333333333332007
100
AcDbArc
 50
180.0
 51
299.981639368863
  0
ARC
  5
96
102
{ACAD_REACTORS
330
A6
102
}
330
47
100
AcDbEntity
  8
1
  6
Continuous
 62
     7
100
AcDbCircle
 10
194.3429673554094
 20
14.92250016016737
 30
0.0
 40
0.3333333333334166
100
AcDbArc
 50
60.01836063113698
 51
180.0
  0
ARC
  5
97
330
47
100
AcDbEntity
  8
1
  6
Continuous
 62
     7
100
AcDbCircle
 10
200.0094488883027
 20
12.5
 30
0.0
 40
0.166666666666687
100
AcDbArc
 50
299.9816393688503
 51
60.01836063112923
  0
ARC
  5
98
330
47
100
AcDbEntity
  8
1
  6
Continuous
 62
     7
100
AcDbCircle
 10
183.3431524891829
 20
12.5
 30
0.0
 40
0.1666666666666265
100
AcDbArc
 50
119.9816393688962
 51
240.0183606311243
  0
ARC
  5
99
102
{ACAD_REACTORS
330
A8
102
}
330
47
100
AcDbEntity
  8
1
  6
Continuous
 62
     7
100
AcDbCircle
 10
189.3429673554094
 20
10.2700211480327
 30
0.0
 40
0.6666666666666003
100
AcDbArc
 50
180.0000000000104
 51
240.0183606311601
  0
ARC
  5
9A
102
{ACAD_REACTORS
330
A9
102
}
330
47
100
AcDbEntity
  8
1
  6
Continuous
 62
     7
100
AcDbCircle
 10
191.6763006887428
 20
12.83333333333326
 30
0.0
 40
0.166666666666709
100
AcDbArc
 50
209.9999999999622
 51
330.0000000000231
  0
MTEXT
  5
9C
330
47
100
AcDbEntity
  8
1
 62
     7
100
AcDbMText
 10
169.6763006887428
 20
10.06063942075605
 30
0.0
 40
4.5
 41
0.0
 71
     5
 72
     1
  1
1:1
  7
CONVERTER_11
 73
     1
 44
1.32052821128451
  0
MTEXT
  5
9D
330
47
100
AcDbEntity
  8
1
 62
     7
100
AcDbMText
 10
169.6763006887428
 20
16.26063942075598
 30
0.0
 40
3.0
 41
0.0
 71
     5
 72
     1
  1
Scale
  7
CONVERTER_11
 73
     1
 44
1.32052821128451
  0
MTEXT
  5
9E
330
47
100
AcDbEntity
  8
1
 62
     7
100
AcDbMText
 10
57.27630068874282
 20
12.5
 30
0.0
 40
4.5
 41
0.0
 71
     4
 72
     1
  1
CKAS 03 VA\PMetal hood side entry PG11 - EMC
  7
CONVERTER_11
 73
     1
 44
0.90036014405762
  0
MTEXT
  5
9F
330
47
100
AcDbEntity
  8
1
 62
     7
100
AcDbMText
 10
32.60000000000014
 20
7.49999999999987
 30
0.0
 40
3.0
 41
0.0
 71
     4
 72
     1
  1
Radice
  7
CONVERTER_11
 73
     1
 44
1.32052821128451
  0
MTEXT
  5
A0
330
47
100
AcDbEntity
  8
1
 62
     7
100
AcDbMText
 10
22.00000000000011
 20
7.49999999999987
 30
0.0
 40
3.0
 41
0.0
 71
     4
 72
     1
  1
Sign.
  7
CONVERTER_11
 73
     1
 44
1.32052821128451
  0
MTEXT
  5
A1
330
47
100
AcDbEntity
  8
1
 62
     7
100
AcDbMText
 10
32.60000000000014
 20
12.49999999999987
 30
0.0
 40
3.0
 41
0.0
 71
     4
 72
     1
  1
01/09/14
  7
CONVERTER_11
 73
     1
 44
1.32052821128451
  0
MTEXT
  5
A2
330
47
100
AcDbEntity
  8
1
 62
     7
100
AcDbMText
 10
22.00000000000011
 20
12.49999999999987
 30
0.0
 40
3.0
 41
0.0
 71
     4
 72
     1
  1
Date
  7
CONVERTER_11
 73
     1
 44
1.32052821128451
  0
MTEXT
  5
A3
330
47
100
AcDbEntity
  8
1
 62
     7
100
AcDbMText
 10
16.0
 20
151.4999999999998
 30
0.0
 40
4.0
 41
0.0
 71
     5
 72
     1
  1
Diritti riservati      All rights reserved
  7
CONVERTER_11
 11
0.0
 21
1.0
 31
0.0
 73
     1
 44
1.32052821128451
  0
MTEXT
  5
A5
330
47
100
AcDbEntity
  8
1
 62
     7
100
AcDbMText
 10
36.00000000000011
 20
17.49999999999994
 30
0.0
 40
2.5
 41
0.0
 71
     5
 72
     1
  1
dimensions in mm
  7
CONVERTER_12
 73
     1
 44
0.60024009603842
  0
HATCH
  5
A6
330
47
100
AcDbEntity
  8
1
  6
Continuous
 62
     7
100
AcDbHatch
 10
0.0
 20
0.0
 30
0.0
210
0.0
220
0.0
230
1.0
  2
SOLID
 70
     1
 71
     1
 91
        1
 92
        1
 93
       14
 72
     2
 10
194.3429673554094
 20
14.92250016016737
 40
0.3333333333334166
 50
60.01836063113698
 51
180.0
 73
     1
 72
     1
 10
194.0096340220762
 20
14.92250016016737
 11
194.0096340220762
 21
10.07749983983263
 72
     2
 10
194.3429673554094
 20
10.07749983983263
 40
0.3333333333332007
 50
180.0
 51
299.981639368863
 73
     1
 72
     1
 10
194.5095415065727
 20
9.78877131114973
 11
195.8428748399059
 21
10.55800208038033
 72
     2
 10
195.6763006887428
 20
10.84673060906323
 40
0.3333333333333172
 50
299.9816393688334
 51
479.9816393688365
 73
     1
 72
     1
 10
195.5097265375796
 20
11.13545913774624
 11
194.6763006887428
 21
10.65463653264794
 72
     1
 10
194.6763006887428
 20
10.65463653264794
 11
194.6763006887428
 21
12.16666666666663
 72
     1
 10
194.6763006887428
 20
12.16666666666663
 11
195.6763006887428
 21
12.16666666666663
 72
     2
 10
195.6763006887428
 20
12.5
 40
0.3333333333333695
 50
270.0
 51
450.0
 73
     1
 72
     1
 10
195.6763006887428
 20
12.83333333333326
 11
194.6763006887428
 21
12.83333333333326
 72
     1
 10
194.6763006887428
 20
12.83333333333326
 11
194.6763006887428
 21
14.34536346735194
 72
     1
 10
194.6763006887428
 20
14.34536346735194
 11
195.5097265375796
 21
13.86454086225376
 72
     2
 10
195.6763006887428
 20
14.15326939093666
 40
0.3333333333333613
 50
240.018360631154
 51
420.0183606311564
 73
     1
 72
     1
 10
195.8428748399059
 20
14.44199791961944
 11
194.5095415065727
 21
15.21122868885027
 97
       14
330
8C
330
63
330
62
330
61
330
8B
330
60
330
5F
330
5E
330
8A
330
5D
330
95
330
7B
330
96
330
64
 75
     0
 76
     1
 98
        1
 10
0.0
 20
0.0
  0
HATCH
  5
A7
330
47
100
AcDbEntity
  8
1
  6
Continuous
 62
     7
100
AcDbHatch
 10
0.0
 20
0.0
 30
0.0
210
0.0
220
0.0
230
1.0
  2
SOLID
 70
     1
 71
     1
 91
        1
 92
        1
 93
        5
 72
     2
 10
187.6763006887428
 20
14.15326939093666
 40
0.3333333333333144
 50
0.0
 51
180.0
 73
     1
 72
     1
 10
187.3429673554094
 20
14.15326939093666
 11
187.3429673554094
 21
10.84673060906323
 72
     2
 10
187.6763006887428
 20
10.84673060906323
 40
0.3333333333333997
 50
180.0
 51
360.0
 73
     1
 72
     1
 10
188.0096340220761
 20
10.84673060906323
 11
188.0096340220761
 21
11.0392519172633
 72
     1
 10
188.0096340220761
 20
11.0392519172633
 11
188.0096340220761
 21
14.15326939093666
 97
        5
330
8E
330
65
330
8D
330
66
330
67
 75
     0
 76
     1
 98
        1
 10
0.0
 20
0.0
  0
HATCH
  5
A8
330
47
100
AcDbEntity
  8
1
  6
Continuous
 62
     7
100
AcDbHatch
 10
0.0
 20
0.0
 30
0.0
210
0.0
220
0.0
230
1.0
  2
SOLID
 70
     1
 71
     1
 91
        1
 92
        1
 93
        7
 72
     2
 10
189.0096340220761
 20
14.92250016016737
 40
0.333333333333286
 50
0.0
 51
180.0
 73
     1
 72
     1
 10
188.6763006887428
 20
14.92250016016737
 11
188.6763006887428
 21
10.27002114803258
 72
     2
 10
189.3429673554094
 20
10.2700211480327
 40
0.6666666666666003
 50
180.0000000000104
 51
240.0183606311601
 73
     1
 72
     1
 10
189.0098190530831
 20
9.692564090666906
 11
191.1763932042462
 21
8.442617464995806
 72
     2
 10
191.3429673554094
 20
8.731345993678701
 40
0.3333333333333567
 50
240.0183606311536
 51
420.0183606311367
 73
     1
 72
     1
 10
191.5095415065727
 20
9.020074522361597
 11
189.3429673554094
 21
10.2700211480327
 72
     1
 10
189.3429673554094
 20
10.2700211480327
 11
189.3429673554094
 21
14.92250016016737
 97
        7
330
90
330
6B
330
99
330
68
330
8F
330
69
330
6A
 75
     0
 76
     1
 98
        1
 10
0.0
 20
0.0
  0
HATCH
  5
A9
330
47
100
AcDbEntity
  8
1
  6
Continuous
 62
     7
100
AcDbHatch
 10
0.0
 20
0.0
 30
0.0
210
0.0
220
0.0
230
1.0
  2
SOLID
 70
     1
 71
     1
 91
        1
 92
        1
 93
       16
 72
     2
 10
193.0780011429341
 20
15.73121731203457
 40
0.2649662124752865
 50
210.0000000000284
 51
360.0
 73
     0
 72
     1
 10
193.3429673554094
 20
15.73121731203457
 11
193.3429673554094
 21
9.308269070601796
 72
     2
 10
193.0096340220762
 20
9.308269070601796
 40
0.3333333333333997
 50
0.0
 51
180.0
 73
     0
 72
     1
 10
192.6763006887428
 20
9.308269070601796
 11
192.6763006887428
 21
12.5
 72
     1
 10
192.6763006887428
 20
12.5
 11
192.6763006887428
 21
14.23205080756884
 72
     1
 10
192.6763006887428
 20
14.23205080756884
 11
191.8206382560402
 21
12.75
 72
     2
 10
191.6763006887428
 20
12.83333333333326
 40
0.166666666666709
 50
29.99999999997686
 51
150.0000000000378
 73
     0
 72
     1
 10
191.5319631214453
 20
12.75
 11
190.6763006887428
 21
14.23205080756884
 72
     1
 10
190.6763006887428
 20
14.23205080756884
 11
190.6763006887428
 21
12.5
 72
     1
 10
190.6763006887428
 20
12.5
 11
190.6763006887428
 21
10.84758507263291
 72
     2
 10
190.3429673554094
 20
10.84758507263291
 40
0.333333333333286
 50
0.0
 51
180.0
 73
     0
 72
     1
 10
190.0096340220761
 20
10.84758507263291
 11
190.0096340220761
 21
12.5
 72
     1
 10
190.0096340220761
 20
12.5
 11
190.0096340220761
 21
15.73121731203457
 72
     2
 10
190.2746002345514
 20
15.73121731203457
 40
0.2649662124752854
 50
180.0
 51
329.9999999999808
 73
     0
 72
     1
 10
190.5040677056995
 20
15.86370041827229
 11
191.6763006887428
 21
13.83333333333326
 72
     1
 10
191.6763006887428
 20
13.83333333333326
 11
192.8485336717861
 21
15.86370041827229
 97
       16
330
71
330
94
330
72
330
70
330
93
330
6F
330
77
330
78
330
9A
330
79
330
7A
330
6E
330
92
330
6D
330
91
330
6C
 75
     0
 76
     1
 98
        1
 10
0.0
 20
0.0
  0
ENDBLK
  5
49
330
47
100
AcDbEntity
  8
0
100
AcDbBlockEnd
  0
BLOCK
  5
4C
330
4A
100
AcDbEntity
  8
0
100
AcDbBlockBegin
  2
A4
 70
     0
 10
210.0000000000001
 20
0.0
 30
0.0
  3
A4
  1

  0
INSERT
  5
4B
330
4A
100
AcDbEntity
  8
1
100
AcDbBlockReference
  2
_formato_A4
 10
210.0000000000001
 20
0.0
 30
0.0
  0
ENDBLK
  5
4D
330
4A
100
AcDbEntity
  8
0
100
AcDbBlockEnd
  0
BLOCK
  5
17D
330
175
100
AcDbEntity
  8
0
100
AcDbBlockBegin
  2
*D3
 70
     1
 10
0.0
 20
0.0
 30
0.0
  3
*D3
  1

  0
LINE
  5
176
330
175
100
AcDbEntity
  8
1
  6
Continuous
 62
     2
100
AcDbLine
 10
133.368162071007
 20
138.9888648865113
 30
0.0
 11
166.868162071007
 21
138.9888648865113
 31
0.0
  0
LINE
  5
177
330
175
100
AcDbEntity
  8
1
  6
Continuous
 62
     2
100
AcDbLine
 10
133.368162071007
 20
161.8976348618867
 30
0.0
 11
133.368162071007
 21
137.9888648865113
 31
0.0
  0
LINE
  5
178
330
175
100
AcDbEntity
  8
1
  6
Continuous
 62
     2
100
AcDbLine
 10
166.868162071007
 20
161.8976348618867
 30
0.0
 11
166.868162071007
 21
137.9888648865113
 31
0.0
  0
SOLID
  5
179
330
175
100
AcDbEntity
  8
1
 62
     2
100
AcDbTrace
 10
136.368162071007
 20
139.3838223792735
 30
0.0
 11
136.368162071007
 21
138.5939073937491
 31
0.0
 12
133.368162071007
 22
138.9888648865113
 32
0.0
 13
133.368162071007
 23
138.9888648865113
 33
0.0
  0
SOLID
  5
17A
330
175
100
AcDbEntity
  8
1
 62
     2
100
AcDbTrace
 10
163.868162071007
 20
138.5939073937491
 30
0.0
 11
163.868162071007
 21
139.3838223792735
 31
0.0
 12
166.868162071007
 22
138.9888648865113
 32
0.0
 13
166.868162071007
 23
138.9888648865113
 33
0.0
  0
MTEXT
  5
17C
330
175
100
AcDbEntity
  8
1
 62
     4
100
AcDbMText
 10
145.993162071007
 20
141.2888648865113
 30
0.0
 40
3.0
 41
0.0
 71
     7
 72
     1
  1
33,5
  7
CONVERTER_13
 11
0.9999999999970619
 21
2.424068405545306E-6
 31
0.0
 73
     1
 44
0.60024009603842
  0
ENDBLK
  5
17E
330
175
100
AcDbEntity
  8
0
100
AcDbBlockEnd
  0
BLOCK
  5
188
330
181
100
AcDbEntity
  8
0
100
AcDbBlockBegin
  2
*D4
 70
     1
 10
0.0
 20
0.0
 30
0.0
  3
*D4
  1

  0
LINE
  5
182
330
181
100
AcDbEntity
  8
1
  6
Continuous
 62
     2
100
AcDbLine
 10
53.35644837386548
 20
138.9888648865113
 30
0.0
 11
80.35644837386548
 21
138.9888648865113
 31
0.0
  0
LINE
  5
183
330
181
100
AcDbEntity
  8
1
  6
Continuous
 62
     2
100
AcDbLine
 10
53.35644837386548
 20
153.4888648865114
 30
0.0
 11
53.35644837386548
 21
137.9888648865113
 31
0.0
  0
LINE
  5
184
330
181
100
AcDbEntity
  8
1
  6
Continuous
 62
     2
100
AcDbLine
 10
80.35644837386548
 20
153.4888648865114
 30
0.0
 11
80.35644837386548
 21
137.9888648865113
 31
0.0
  0
SOLID
  5
185
330
181
100
AcDbEntity
  8
1
 62
     2
100
AcDbTrace
 10
56.35644837386548
 20
139.3838223792735
 30
0.0
 11
56.35644837386548
 21
138.5939073937491
 31
0.0
 12
53.35644837386548
 22
138.9888648865113
 32
0.0
 13
53.35644837386548
 23
138.9888648865113
 33
0.0
  0
SOLID
  5
186
330
181
100
AcDbEntity
  8
1
 62
     2
100
AcDbTrace
 10
77.35644837386548
 20
138.5939073937491
 30
0.0
 11
77.35644837386548
 21
139.3838223792735
 31
0.0
 12
80.35644837386548
 22
138.9888648865113
 32
0.0
 13
80.35644837386548
 23
138.9888648865113
 33
0.0
  0
MTEXT
  5
187
330
181
100
AcDbEntity
  8
1
 62
     4
100
AcDbMText
 10
64.60644837386548
 20
140.9888648865113
 30
0.0
 40
3.0
 41
0.0
 71
     7
 72
     1
  1
27
  7
CONVERTER_13
 11
0.9999999999970619
 21
2.424068405545306E-6
 31
0.0
 73
     1
 44
0.60024009603842
  0
ENDBLK
  5
189
330
181
100
AcDbEntity
  8
0
100
AcDbBlockEnd
  0
BLOCK
  5
193
330
18C
100
AcDbEntity
  8
0
100
AcDbBlockBegin
  2
*D5
 70
     1
 10
0.0
 20
0.0
 30
0.0
  3
*D5
  1

  0
LINE
  5
18D
330
18C
100
AcDbEntity
  8
1
  6
Continuous
 62
     2
100
AcDbLine
 10
176.868162071007
 20
153.9888648865114
 30
0.0
 11
176.868162071007
 21
206.9450555884398
 31
0.0
  0
LINE
  5
18E
330
18C
100
AcDbEntity
  8
1
  6
Continuous
 62
     2
100
AcDbLine
 10
164.118162071007
 20
153.9888648865114
 30
0.0
 11
177.868162071007
 21
153.9888648865114
 31
0.0
  0
LINE
  5
18F
330
18C
100
AcDbEntity
  8
1
  6
Continuous
 62
     2
100
AcDbLine
 10
150.618162071007
 20
206.9450555884398
 30
0.0
 11
177.868162071007
 21
206.9450555884398
 31
0.0
  0
SOLID
  5
190
330
18C
100
AcDbEntity
  8
1
 62
     2
100
AcDbTrace
 10
176.4732045782448
 20
156.9888648865114
 30
0.0
 11
177.2631195637692
 21
156.9888648865114
 31
0.0
 12
176.868162071007
 22
153.9888648865114
 32
0.0
 13
176.868162071007
 23
153.9888648865114
 33
0.0
  0
SOLID
  5
191
330
18C
100
AcDbEntity
  8
1
 62
     2
100
AcDbTrace
 10
177.2631195637692
 20
203.9450555884398
 30
0.0
 11
176.4732045782448
 21
203.9450555884398
 31
0.0
 12
176.868162071007
 22
206.9450555884398
 32
0.0
 13
176.868162071007
 23
206.9450555884398
 33
0.0
  0
MTEXT
  5
192
330
18C
100
AcDbEntity
  8
1
 62
     4
100
AcDbMText
 10
174.868162071007
 20
178.2169602374756
 30
0.0
 40
3.0
 41
0.0
 71
     7
 72
     1
  1
53
  7
CONVERTER_13
 11
0.0
 21
1.0
 31
0.0
 73
     1
 44
0.60024009603842
  0
ENDBLK
  5
194
330
18C
100
AcDbEntity
  8
0
100
AcDbBlockEnd
  0
BLOCK
  5
19E
330
197
100
AcDbEntity
  8
0
100
AcDbBlockBegin
  2
*D6
 70
     1
 10
0.0
 20
0.0
 30
0.0
  3
*D6
  1

  0
LINE
  5
198
330
197
100
AcDbEntity
  8
1
  6
Continuous
 62
     2
100
AcDbLine
 10
96.18633523083363
 20
207.2703877741381
 30
0.0
 11
100.8450780426789
 21
189.8837229009349
 31
0.0
  0
LINE
  5
199
330
197
100
AcDbEntity
  8
1
  6
Continuous
 62
     2
100
AcDbLine
 10
87.02328425697621
 20
204.8151556654879
 30
0.0
 11
97.15226105712273
 21
207.5292068192406
 31
0.0
  0
LINE
  5
19A
330
197
100
AcDbEntity
  8
1
  6
Continuous
 62
     2
100
AcDbLine
 10
91.7222153068893
 20
187.4392591982201
 30
0.0
 11
101.811003868968
 21
190.1425419460374
 31
0.0
  0
SOLID
  5
19B
330
197
100
AcDbEntity
  8
1
 62
     2
100
AcDbTrace
 10
97.34429200868655
 20
204.4748328164037
 30
0.0
 11
96.5812927235958
 21
204.2703877741381
 31
0.0
 12
96.18633523083363
 22
207.2703877741381
 32
0.0
 13
96.18633523083363
 23
207.2703877741381
 33
0.0
  0
SOLID
  5
19C
330
197
100
AcDbEntity
  8
1
 62
     2
100
AcDbTrace
 10
99.68712126482595
 20
192.6792778586693
 30
0.0
 11
100.4501205499167
 21
192.8837229009349
 31
0.0
 12
100.8450780426789
 22
189.8837229009349
 32
0.0
 13
100.8450780426789
 23
189.8837229009349
 33
0.0
  0
MTEXT
  5
19D
330
197
100
AcDbEntity
  8
1
 62
     4
100
AcDbMText
 10
99.36051829990383
 20
203.1515818981556
 30
0.0
 40
3.0
 41
0.0
 71
     7
 72
     1
  1
PG11
  7
CONVERTER_13
 11
0.2588190451025132
 21
-0.9659258262890703
 31
0.0
 73
     1
 44
0.60024009603842
  0
ENDBLK
  5
19F
330
197
100
AcDbEntity
  8
0
100
AcDbBlockEnd
  0
ENDSEC
  0
SECTION
  2
ENTITIES
  0
INSERT
  5
4E
330
1F
100
AcDbEntity
  8
0
100
AcDbBlockReference
  2
A4
 10
210.0000000000001
 20
0.0
 30
0.0
  0
LINE
  5
AA
330
1F
100
AcDbEntity
  8
0
  6
Continuous
 62
     7
100
AcDbLine
 10
151.118162071007
 20
179.1367470527025
 30
0.0
 11
151.118162071007
 21
182.9905159975622
 31
0.0
  0
LINE
  5
AB
330
1F
100
AcDbEntity
  8
0
  6
Continuous
 62
     7
100
AcDbLine
 10
150.7181620710069
 20
182.0910160948828
 30
0.0
 11
150.7181620710069
 21
179.1367470527025
 31
0.0
  0
LINE
  5
AC
330
1F
100
AcDbEntity
  8
0
  6
Continuous
 62
     7
100
AcDbLine
 10
151.5181620710069
 20
182.5052857064419
 30
0.0
 11
151.5181620710069
 21
179.598285514241
 31
0.0
  0
LINE
  5
AD
330
1F
100
AcDbEntity
  8
0
  6
Continuous
 62
     7
100
AcDbLine
 10
151.918162071007
 20
180.8517856103415
 30
0.0
 11
152.5181620710069
 21
180.8517856103416
 31
0.0
  0
LINE
  5
AE
330
1F
100
AcDbEntity
  8
0
  6
Continuous
 62
     7
100
AcDbLine
 10
151.918162071007
 20
179.9445675299303
 30
0.0
 11
151.918162071007
 21
180.8517856103415
 31
0.0
  0
LINE
  5
AF
330
1F
100
AcDbEntity
  8
0
  6
Continuous
 62
     7
100
AcDbLine
 10
152.4182175803091
 20
180.2330610929891
 30
0.0
 11
151.918162071007
 21
179.9445675299303
 31
0.0
  0
LINE
  5
B0
330
1F
100
AcDbEntity
  8
0
  6
Continuous
 62
     7
100
AcDbLine
 10
151.8181065617048
 20
179.4250483970313
 30
0.0
 11
152.6181065617048
 21
179.8865868585697
 31
0.0
  0
LINE
  5
B1
330
1F
100
AcDbEntity
  8
0
  6
Continuous
 62
     7
100
AcDbLine
 10
150.118162071007
 20
178.0517856103415
 30
0.0
 11
155.1680232360919
 21
180.9651670517366
 31
0.0
  0
LINE
  5
B2
330
1F
100
AcDbEntity
  8
0
  6
Continuous
 62
     7
100
AcDbLine
 10
154.9179399104789
 20
181.0517856103415
 30
0.0
 11
150.118162071007
 21
178.2826830106461
 31
0.0
  0
LINE
  5
B3
330
1F
100
AcDbEntity
  8
0
  6
Continuous
 62
     7
100
AcDbLine
 10
145.3183842315351
 20
181.0517856103415
 30
0.0
 11
150.118162071007
 21
183.8208882100368
 31
0.0
  0
LINE
  5
B4
330
1F
100
AcDbEntity
  8
0
  6
Continuous
 62
     7
100
AcDbLine
 10
150.8215018608329
 20
183.0700058613048
 30
0.0
 11
150.118162071007
 21
181.8517856103415
 31
0.0
  0
LINE
  5
B5
330
1F
100
AcDbEntity
  8
0
  6
Continuous
 62
     7
100
AcDbLine
 10
150.2047646113854
 20
181.2017856103414
 30
0.0
 11
150.7181620710069
 21
182.0910160948828
 31
0.0
  0
LINE
  5
B6
330
1F
100
AcDbEntity
  8
0
  6
Continuous
 62
     7
100
AcDbLine
 10
152.6181065617049
 20
182.2169843621134
 30
0.0
 11
151.8181065617048
 21
182.6785228236517
 31
0.0
  0
LINE
  5
B7
330
1F
100
AcDbEntity
  8
0
  6
Continuous
 62
     7
100
AcDbLine
 10
151.918162071007
 20
182.1590036907527
 30
0.0
 11
152.418217580309
 21
181.8705101276937
 31
0.0
  0
LINE
  5
B8
330
1F
100
AcDbEntity
  8
0
  6
Continuous
 62
     7
100
AcDbLine
 10
151.918162071007
 20
181.2517856103414
 30
0.0
 11
151.918162071007
 21
182.1590036907527
 31
0.0
  0
LINE
  5
B9
330
1F
100
AcDbEntity
  8
0
  6
Continuous
 62
     7
100
AcDbLine
 10
152.5181620710069
 20
181.2517856103415
 30
0.0
 11
151.918162071007
 21
181.2517856103414
 31
0.0
  0
LINE
  5
BA
330
1F
100
AcDbEntity
  8
0
  6
Continuous
 62
     7
100
AcDbLine
 10
155.1680232360919
 20
181.1384041689464
 30
0.0
 11
150.118162071007
 21
184.0517856103415
 31
0.0
  0
LINE
  5
BB
330
1F
100
AcDbEntity
  8
0
  6
Continuous
 62
     7
100
AcDbLine
 10
150.118162071007
 20
183.8208882100368
 30
0.0
 11
154.9179399104789
 21
181.0517856103415
 31
0.0
  0
LINE
  5
BC
330
1F
100
AcDbEntity
  8
0
  6
Continuous
 62
     7
100
AcDbLine
 10
148.7181620710069
 20
179.713798299161
 30
0.0
 11
148.7181620710069
 21
182.5052857064419
 31
0.0
  0
LINE
  5
BD
330
1F
100
AcDbEntity
  8
0
  6
Continuous
 62
     7
100
AcDbLine
 10
147.9181620710069
 20
180.0598239757794
 30
0.0
 11
147.918162071007
 21
182.0437472449035
 31
0.0
  0
LINE
  5
BE
330
1F
100
AcDbEntity
  8
0
  6
Continuous
 62
     7
100
AcDbLine
 10
148.318162071007
 20
182.5052857064419
 30
0.0
 11
148.318162071007
 21
179.713798299161
 31
0.0
  0
LINE
  5
BF
330
1F
100
AcDbEntity
  8
0
  6
Continuous
 62
     7
100
AcDbLine
 10
147.5181620710069
 20
182.0437472449035
 30
0.0
 11
147.5181620710069
 21
180.0598239757794
 31
0.0
  0
LINE
  5
C0
330
1F
100
AcDbEntity
  8
0
  6
Continuous
 62
     7
100
AcDbLine
 10
149.118162071007
 20
182.9905159975622
 30
0.0
 11
149.118162071007
 21
180.0603366539212
 31
0.0
  0
LINE
  5
C1
330
1F
100
AcDbEntity
  8
0
  6
Continuous
 62
     7
100
AcDbLine
 10
150.118162071007
 20
181.8517856103415
 30
0.0
 11
149.414822281181
 21
183.0700058613048
 31
0.0
  0
LINE
  5
C2
330
1F
100
AcDbEntity
  8
0
  6
Continuous
 62
     7
100
AcDbLine
 10
149.5181620710069
 20
182.0910160948828
 30
0.0
 11
150.0315595306286
 21
181.2017856103414
 31
0.0
  0
LINE
  5
C3
330
1F
100
AcDbEntity
  8
0
  6
Continuous
 62
     7
100
AcDbLine
 10
149.5181620710069
 20
180.0603366539212
 30
0.0
 11
149.5181620710069
 21
182.0910160948828
 31
0.0
  0
LINE
  5
C4
330
1F
100
AcDbEntity
  8
0
  6
Continuous
 62
     7
100
AcDbLine
 10
148.5182730896112
 20
179.3673240647416
 30
0.0
 11
149.8182175803091
 21
178.6173560893389
 31
0.0
  0
LINE
  5
C5
330
1F
100
AcDbEntity
  8
0
  6
Continuous
 62
     7
100
AcDbLine
 10
150.0181065617049
 20
178.9638303237585
 30
0.0
 11
148.7181620710069
 21
179.713798299161
 31
0.0
  0
LINE
  5
C6
330
1F
100
AcDbEntity
  8
0
  6
Continuous
 62
     7
100
AcDbLine
 10
150.118162071007
 20
178.2826830106461
 30
0.0
 11
145.3183842315351
 21
181.0517856103415
 31
0.0
  0
LINE
  5
C7
330
1F
100
AcDbEntity
  8
0
  6
Continuous
 62
     7
100
AcDbLine
 10
145.0683009059221
 20
180.9651670517367
 30
0.0
 11
150.118162071007
 21
178.0517856103415
 31
0.0
  0
LINE
  5
C8
330
1F
100
AcDbEntity
  8
0
  6
Continuous
 62
     7
100
AcDbLine
 10
150.118162071007
 20
184.0517856103415
 30
0.0
 11
145.0683009059221
 21
181.1384041689463
 31
0.0
  0
LINE
  5
C9
330
1F
100
AcDbEntity
  8
1
  6
Continuous
 62
     4
100
AcDbLine
 10
60.98423503684256
 20
143.4888648865113
 30
0.0
 11
60.98423503684256
 21
141.4888648865113
 31
0.0
  0
LINE
  5
CA
330
1F
100
AcDbEntity
  8
1
  6
Continuous
 62
     4
100
AcDbLine
 10
60.98423503684256
 20
141.4888648865113
 30
0.0
 11
62.98423503684256
 21
141.4888648865113
 31
0.0
  0
LINE
  5
CB
330
1F
100
AcDbEntity
  8
1
  6
Continuous
 62
     4
100
AcDbLine
 10
62.98423503684256
 20
141.4888648865113
 30
0.0
 11
62.98423503684256
 21
143.4888648865113
 31
0.0
  0
LINE
  5
CC
330
1F
100
AcDbEntity
  8
1
  6
Continuous
 62
     4
100
AcDbLine
 10
62.98423503684256
 20
143.4888648865113
 30
0.0
 11
60.98423503684256
 21
143.4888648865113
 31
0.0
  0
LINE
  5
CD
330
1F
100
AcDbEntity
  8
1
  6
Continuous
 62
     4
100
AcDbLine
 10
61.23423503684256
 20
140.9888648865113
 30
0.0
 11
62.73423503684256
 21
143.9888648865113
 31
0.0
  0
LINE
  5
CE
330
1F
100
AcDbEntity
  8
0
  6
Continuous
 62
     7
100
AcDbLine
 10
133.368162071007
 20
163.7849192451843
 30
0.0
 11
133.368162071007
 21
165.3888648865114
 31
0.0
  0
LINE
  5
CF
330
1F
100
AcDbEntity
  8
0
  6
Continuous
 62
     7
100
AcDbLine
 10
136.868162071007
 20
163.8888648865114
 30
0.0
 11
136.868162071007
 21
163.7849192451843
 31
0.0
  0
LINE
  5
D0
330
1F
100
AcDbEntity
  8
0
  6
Continuous
 62
     7
100
AcDbLine
 10
136.868162071007
 20
163.7849192451843
 30
0.0
 11
136.868162071007
 21
158.8976348618867
 31
0.0
  0
LINE
  5
D1
330
1F
100
AcDbEntity
  8
0
  6
Continuous
 62
     7
100
AcDbLine
 10
136.868162071007
 20
158.2388648865114
 30
0.0
 11
136.618162071007
 21
157.9888648856341
 31
0.0
  0
LINE
  5
D2
330
1F
100
AcDbEntity
  8
0
  6
Continuous
 62
     7
100
AcDbLine
 10
138.118162071007
 20
163.8888648865114
 30
0.0
 11
138.118162071007
 21
159.4888648865114
 31
0.0
  0
LINE
  5
D3
330
1F
100
AcDbEntity
  8
0
  6
Continuous
 62
     7
100
AcDbLine
 10
138.118162071007
 20
201.4152749647809
 30
0.0
 11
138.118162071007
 21
196.898223951496
 31
0.0
  0
LINE
  5
D4
330
1F
100
AcDbEntity
  8
0
  6
Continuous
 62
     7
100
AcDbLine
 10
136.868162071007
 20
165.3888648865114
 30
0.0
 11
136.868162071007
 21
166.3888648865114
 31
0.0
  0
LINE
  5
D5
330
1F
100
AcDbEntity
  8
0
  6
Continuous
 62
     7
100
AcDbLine
 10
136.868162071007
 20
163.8888648865114
 30
0.0
 11
136.868162071007
 21
165.3888648865114
 31
0.0
  0
LINE
  5
D6
330
1F
100
AcDbEntity
  8
0
  6
Continuous
 62
     7
100
AcDbLine
 10
138.118162071007
 20
167.6388648865114
 30
0.0
 11
138.118162071007
 21
163.8888648865114
 31
0.0
  0
LINE
  5
D7
330
1F
100
AcDbEntity
  8
0
  6
Continuous
 62
     2
100
AcDbLine
 10
136.868162071007
 20
163.8888648865114
 30
0.0
 11
138.118162071007
 21
163.8888648865114
 31
0.0
  0
LINE
  5
D8
330
1F
100
AcDbEntity
  8
0
  6
Continuous
 62
     7
100
AcDbLine
 10
138.118162071007
 20
196.898223951496
 30
0.0
 11
138.118162071007
 21
167.6388648865114
 31
0.0
  0
LINE
  5
D9
330
1F
100
AcDbEntity
  8
0
  6
Continuous
 62
     7
100
AcDbLine
 10
136.868162071007
 20
166.3888648865114
 30
0.0
 11
138.118162071007
 21
167.6388648865114
 31
0.0
  0
LINE
  5
DA
330
1F
100
AcDbEntity
  8
0
  6
Continuous
 62
     7
100
AcDbLine
 10
133.368162071007
 20
165.3888648865114
 30
0.0
 11
136.868162071007
 21
165.3888648865114
 31
0.0
  0
LINE
  5
DB
330
1F
100
AcDbEntity
  8
0
  6
Continuous
 62
     7
100
AcDbLine
 10
133.368162071007
 20
163.7849192451843
 30
0.0
 11
136.868162071007
 21
163.7849192451843
 31
0.0
  0
LINE
  5
DC
330
1F
100
AcDbEntity
  8
0
  6
Continuous
 62
     7
100
AcDbLine
 10
133.368162071007
 20
162.3976348618867
 30
0.0
 11
133.368162071007
 21
163.7849192451843
 31
0.0
  0
LINE
  5
DD
330
1F
100
AcDbEntity
  8
0
  6
Continuous
 62
     7
100
AcDbLine
 10
163.368162071007
 20
158.2388648865114
 30
0.0
 11
163.618162071007
 21
157.9888648856341
 31
0.0
  0
LINE
  5
DE
330
1F
100
AcDbEntity
  8
0
  6
Continuous
 62
     7
100
AcDbLine
 10
133.368162071007
 20
162.3976348618867
 30
0.0
 11
136.868162071007
 21
158.8976348618867
 31
0.0
  0
LINE
  5
DF
330
1F
100
AcDbEntity
  8
0
  6
Continuous
 62
     2
100
AcDbLine
 10
141.318162071007
 20
196.8848265447145
 30
0.0
 11
141.318162071007
 21
159.4888648865114
 31
0.0
  0
LINE
  5
E0
330
1F
100
AcDbEntity
  8
0
  6
Continuous
 62
     2
100
AcDbLine
 10
141.2718838097376
 20
159.4891995411145
 30
0.0
 11
140.1182512734641
 21
157.9888648865114
 31
0.0
  0
LINE
  5
E1
330
1F
100
AcDbEntity
  8
0
  6
Continuous
 62
     7
100
AcDbLine
 10
163.368162071007
 20
163.7849192451843
 30
0.0
 11
163.368162071007
 21
158.8976348618867
 31
0.0
  0
LINE
  5
E2
330
1F
100
AcDbEntity
  8
0
  6
Continuous
 62
     7
100
AcDbLine
 10
163.368162071007
 20
166.3888648865114
 30
0.0
 11
162.118162071007
 21
167.6388648865114
 31
0.0
  0
LINE
  5
E3
330
1F
100
AcDbEntity
  8
0
  6
Continuous
 62
     7
100
AcDbLine
 10
163.368162071007
 20
165.3888648865114
 30
0.0
 11
163.368162071007
 21
166.3888648865114
 31
0.0
  0
LINE
  5
E4
330
1F
100
AcDbEntity
  8
0
  6
Continuous
 62
     7
100
AcDbLine
 10
162.118162071007
 20
163.8888648865114
 30
0.0
 11
162.118162071007
 21
167.6388648865114
 31
0.0
  0
LINE
  5
E5
330
1F
100
AcDbEntity
  8
0
  6
Continuous
 62
     7
100
AcDbLine
 10
162.118162071007
 20
159.4888648865114
 30
0.0
 11
162.118162071007
 21
163.8888648865114
 31
0.0
  0
LINE
  5
E6
330
1F
100
AcDbEntity
  8
0
  6
Continuous
 62
     7
100
AcDbLine
 10
162.118162071007
 20
167.6388648865114
 30
0.0
 11
162.118162071007
 21
196.8982239592773
 31
0.0
  0
LINE
  5
E7
330
1F
100
AcDbEntity
  8
0
  6
Continuous
 62
     7
100
AcDbLine
 10
162.118162071007
 20
196.8982239592773
 30
0.0
 11
162.118162071007
 21
201.4152749626141
 31
0.0
  0
LINE
  5
E8
330
1F
100
AcDbEntity
  8
0
  6
Continuous
 62
     7
100
AcDbLine
 10
163.368162071007
 20
158.8976348618867
 30
0.0
 11
166.868162071007
 21
162.3976348618867
 31
0.0
  0
LINE
  5
E9
330
1F
100
AcDbEntity
  8
0
  6
Continuous
 62
     7
100
AcDbLine
 10
163.368162071007
 20
158.8976348618867
 30
0.0
 11
163.368162071007
 21
158.2388648865114
 31
0.0
  0
LINE
  5
EA
330
1F
100
AcDbEntity
  8
0
  6
Continuous
 62
     7
100
AcDbLine
 10
162.118162071007
 20
159.4888648865114
 30
0.0
 11
163.368162071007
 21
158.2388648865114
 31
0.0
  0
LINE
  5
EB
330
1F
100
AcDbEntity
  8
0
  6
Continuous
 62
     7
100
AcDbLine
 10
163.618162071007
 20
153.9888648865114
 30
0.0
 11
163.618162071007
 21
157.9888648856341
 31
0.0
  0
LINE
  5
EC
330
1F
100
AcDbEntity
  8
0
  6
Continuous
 62
     7
100
AcDbLine
 10
163.618162071007
 20
153.9888648865114
 30
0.0
 11
160.118162071007
 21
153.9888648865114
 31
0.0
  0
LINE
  5
ED
330
1F
100
AcDbEntity
  8
0
  6
Continuous
 62
     7
100
AcDbLine
 10
162.1178274164038
 20
159.4891995411145
 30
0.0
 11
162.118162071007
 21
159.4888648865114
 31
0.0
  0
LINE
  5
EE
330
1F
100
AcDbEntity
  8
0
  6
Continuous
 62
     7
100
AcDbLine
 10
136.618162071007
 20
153.9888648865114
 30
0.0
 11
140.118162071007
 21
153.9888648865114
 31
0.0
  0
LINE
  5
EF
330
1F
100
AcDbEntity
  8
0
  6
Continuous
 62
     7
100
AcDbLine
 10
136.618162071007
 20
153.9888648865114
 30
0.0
 11
136.618162071007
 21
157.9888648856341
 31
0.0
  0
LINE
  5
F0
330
1F
100
AcDbEntity
  8
0
  6
Continuous
 62
     7
100
AcDbLine
 10
138.1184967256101
 20
159.4891995411145
 30
0.0
 11
138.118162071007
 21
159.4888648865114
 31
0.0
  0
LINE
  5
F1
330
1F
100
AcDbEntity
  8
0
  6
Continuous
 62
     7
100
AcDbLine
 10
136.868162071007
 20
158.8976348618867
 30
0.0
 11
136.868162071007
 21
158.2388648865114
 31
0.0
  0
LINE
  5
F2
330
1F
100
AcDbEntity
  8
0
  6
Continuous
 62
     7
100
AcDbLine
 10
158.918162071007
 20
159.4888648865114
 30
0.0
 11
141.318162071007
 21
159.4888648865114
 31
0.0
  0
LINE
  5
F3
330
1F
100
AcDbEntity
  8
0
  6
Continuous
 62
     2
100
AcDbLine
 10
140.118162071007
 20
153.9888648865114
 30
0.0
 11
140.118162071007
 21
157.988864885634
 31
0.0
  0
LINE
  5
F4
330
1F
100
AcDbEntity
  8
0
  6
Continuous
 62
     7
100
AcDbLine
 10
140.1182512734641
 20
157.9888648865114
 30
0.0
 11
160.1180728685498
 21
157.9888648865114
 31
0.0
  0
LINE
  5
F5
330
1F
100
AcDbEntity
  8
0
  6
Continuous
 62
     2
100
AcDbLine
 10
160.118162071007
 20
153.9888648865114
 30
0.0
 11
160.118162071007
 21
157.988864885634
 31
0.0
  0
LINE
  5
F6
330
1F
100
AcDbEntity
  8
0
  6
Continuous
 62
     7
100
AcDbLine
 10
140.118162071007
 20
153.9888648865114
 30
0.0
 11
160.118162071007
 21
153.9888648865114
 31
0.0
  0
LINE
  5
F7
330
1F
100
AcDbEntity
  8
0
  6
Continuous
 62
     2
100
AcDbLine
 10
158.9644403322764
 20
159.4891995411145
 30
0.0
 11
160.1180728685498
 21
157.9888648865114
 31
0.0
  0
LINE
  5
F8
330
1F
100
AcDbEntity
  8
0
  6
Continuous
 62
     7
100
AcDbLine
 10
138.118162071007
 20
159.4888648865114
 30
0.0
 11
136.868162071007
 21
158.2388648865114
 31
0.0
  0
LINE
  5
F9
330
1F
100
AcDbEntity
  8
0
  6
Continuous
 62
     7
100
AcDbLine
 10
166.868162071007
 20
163.7849192451843
 30
0.0
 11
166.868162071007
 21
162.3976348618867
 31
0.0
  0
LINE
  5
FA
330
1F
100
AcDbEntity
  8
0
  6
Continuous
 62
     7
100
AcDbLine
 10
166.868162071007
 20
163.7849192451843
 30
0.0
 11
166.868162071007
 21
165.3888648865114
 31
0.0
  0
LINE
  5
FB
330
1F
100
AcDbEntity
  8
0
  6
Continuous
 62
     7
100
AcDbLine
 10
163.368162071007
 20
163.8888648865114
 30
0.0
 11
163.368162071007
 21
163.7849192451843
 31
0.0
  0
LINE
  5
FC
330
1F
100
AcDbEntity
  8
0
  6
Continuous
 62
     7
100
AcDbLine
 10
163.368162071007
 20
163.8888648865114
 30
0.0
 11
163.368162071007
 21
165.3888648865114
 31
0.0
  0
LINE
  5
FD
330
1F
100
AcDbEntity
  8
0
  6
Continuous
 62
     2
100
AcDbLine
 10
163.368162071007
 20
163.8888648865114
 30
0.0
 11
162.118162071007
 21
163.8888648865114
 31
0.0
  0
LINE
  5
FE
330
1F
100
AcDbEntity
  8
0
  6
Continuous
 62
     7
100
AcDbLine
 10
166.868162071007
 20
163.7849192451843
 30
0.0
 11
163.368162071007
 21
163.7849192451843
 31
0.0
  0
LINE
  5
FF
330
1F
100
AcDbEntity
  8
0
  6
Continuous
 62
     7
100
AcDbLine
 10
166.868162071007
 20
165.3888648865114
 30
0.0
 11
163.368162071007
 21
165.3888648865114
 31
0.0
  0
LINE
  5
100
330
1F
100
AcDbEntity
  8
0
  6
Continuous
 62
     2
100
AcDbLine
 10
158.918162071007
 20
196.8848265504048
 30
0.0
 11
158.918162071007
 21
159.4888648865114
 31
0.0
  0
LINE
  5
101
330
1F
100
AcDbEntity
  8
0
  6
Continuous
 62
     7
100
AcDbLine
 10
85.94473411646214
 20
206.8555304322634
 30
0.0
 11
83.38106906900094
 21
206.9450555884398
 31
0.0
  0
LINE
  5
102
330
1F
100
AcDbEntity
  8
0
  6
Continuous
 62
     7
100
AcDbLine
 10
57.16287974435551
 20
199.9199129318948
 30
0.0
 11
57.24116850208139
 21
199.9408903413039
 31
0.0
  0
LINE
  5
103
330
1F
100
AcDbEntity
  8
0
  6
Continuous
 62
     7
100
AcDbLine
 10
57.15717159666878
 20
199.9183834383319
 30
0.0
 11
57.16182849661306
 21
199.9196310168342
 31
0.0
  0
LINE
  5
104
330
1F
100
AcDbEntity
  8
0
  6
Continuous
 62
     7
100
AcDbLine
 10
57.24116850208139
 20
199.9408903413039
 30
0.0
 11
74.27927645088113
 21
204.5062376067391
 31
0.0
  0
LINE
  5
105
330
1F
100
AcDbEntity
  8
0
  6
Continuous
 62
     7
100
AcDbLine
 10
74.27927645088113
 20
204.5062376067391
 30
0.0
 11
83.38106906900094
 21
206.9450555884398
 31
0.0
  0
LINE
  5
106
330
1F
100
AcDbEntity
  8
0
  6
Continuous
 62
     7
100
AcDbLine
 10
89.59272615146148
 20
183.7628357575022
 30
0.0
 11
78.85644837386548
 21
180.8860587972792
 31
0.0
  0
LINE
  5
107
330
1F
100
AcDbEntity
  8
0
  6
Continuous
 62
     7
100
AcDbLine
 10
91.76816263126881
 20
185.1221993407594
 30
0.0
 11
89.59272615146148
 21
183.7628357575022
 31
0.0
  0
LINE
  5
108
330
1F
100
AcDbEntity
  8
0
  6
Continuous
 62
     7
100
AcDbLine
 10
85.94473411646214
 20
206.8555304322634
 30
0.0
 11
86.52707696794295
 21
204.682197323113
 31
0.0
  0
LINE
  5
109
330
1F
100
AcDbEntity
  8
0
  6
Continuous
 62
     7
100
AcDbLine
 10
76.85644837386548
 20
153.9888648865114
 30
0.0
 11
56.85644837386548
 21
153.9888648865114
 31
0.0
  0
LINE
  5
10A
330
1F
100
AcDbEntity
  8
0
  6
Continuous
 62
     7
100
AcDbLine
 10
63.10644837386548
 20
159.4888648865114
 30
0.0
 11
64.35644837386559
 21
158.2388648865114
 31
0.0
  0
LINE
  5
10B
330
1F
100
AcDbEntity
  8
0
  6
Continuous
 62
     7
100
AcDbLine
 10
78.8561137192624
 20
159.4891995411145
 30
0.0
 11
78.85644837386548
 21
159.4888648865114
 31
0.0
  0
LINE
  5
10C
330
1F
100
AcDbEntity
  8
0
  6
Continuous
 62
     7
100
AcDbLine
 10
56.85653757632264
 20
157.9888648865114
 30
0.0
 11
76.85635917140831
 21
157.9888648865114
 31
0.0
  0
LINE
  5
10D
330
1F
100
AcDbEntity
  8
0
  6
Continuous
 62
     7
100
AcDbLine
 10
70.60644837386548
 20
159.4888648865114
 30
0.0
 11
75.65644837386554
 21
159.4888648865114
 31
0.0
  0
LINE
  5
10E
330
1F
100
AcDbEntity
  8
0
  6
Continuous
 62
     7
100
AcDbLine
 10
68.35284247424448
 20
162.3976348618867
 30
0.0
 11
68.35284247424448
 21
158.8976348618867
 31
0.0
  0
LINE
  5
10F
330
1F
100
AcDbEntity
  8
0
  6
Continuous
 62
     7
100
AcDbLine
 10
65.36005427348647
 20
158.8976348618867
 30
0.0
 11
65.36005427348647
 21
162.3976348618867
 31
0.0
  0
LINE
  5
110
330
1F
100
AcDbEntity
  8
0
  6
Continuous
 62
     7
100
AcDbLine
 10
63.10644837386548
 20
159.4888648865114
 30
0.0
 11
63.10644837386548
 21
163.8888648865114
 31
0.0
  0
LINE
  5
111
330
1F
100
AcDbEntity
  8
0
  6
Continuous
 62
     7
100
AcDbLine
 10
64.35644837386559
 20
158.2388648865114
 30
0.0
 11
69.35644837386548
 21
158.2388648865114
 31
0.0
  0
LINE
  5
112
330
1F
100
AcDbEntity
  8
0
  6
Continuous
 62
     7
100
AcDbLine
 10
64.35644837386548
 20
163.8888648865114
 30
0.0
 11
64.35644837386559
 21
158.2388648865114
 31
0.0
  0
LINE
  5
113
330
1F
100
AcDbEntity
  8
0
  6
Continuous
 62
     7
100
AcDbLine
 10
65.36005427348647
 20
158.8976348618867
 30
0.0
 11
68.35284247424448
 21
158.8976348618867
 31
0.0
  0
LINE
  5
114
330
1F
100
AcDbEntity
  8
0
  6
Continuous
 62
     7
100
AcDbLine
 10
69.35644837386548
 20
158.2388648865114
 30
0.0
 11
69.35644837386548
 21
163.8888648865114
 31
0.0
  0
LINE
  5
115
330
1F
100
AcDbEntity
  8
0
  6
Continuous
 62
     7
100
AcDbLine
 10
65.36005427348647
 20
163.7849192451843
 30
0.0
 11
65.36005427348647
 21
162.3976348618867
 31
0.0
  0
LINE
  5
116
330
1F
100
AcDbEntity
  8
0
  6
Continuous
 62
     7
100
AcDbLine
 10
65.36005427348647
 20
162.3976348618867
 30
0.0
 11
68.35284247424448
 21
162.3976348618867
 31
0.0
  0
LINE
  5
117
330
1F
100
AcDbEntity
  8
0
  6
Continuous
 62
     7
100
AcDbLine
 10
58.05644837386552
 20
159.4888648865114
 30
0.0
 11
63.10644837386548
 21
159.4888648865114
 31
0.0
  0
LINE
  5
118
330
1F
100
AcDbEntity
  8
0
  6
Continuous
 62
     7
100
AcDbLine
 10
70.60644837386548
 20
163.8888648865114
 30
0.0
 11
70.60644837386548
 21
159.4888648865114
 31
0.0
  0
LINE
  5
119
330
1F
100
AcDbEntity
  8
0
  6
Continuous
 62
     7
100
AcDbLine
 10
68.35284247424448
 20
163.7849192451843
 30
0.0
 11
68.35284247424448
 21
162.3976348618867
 31
0.0
  0
LINE
  5
11A
330
1F
100
AcDbEntity
  8
0
  6
Continuous
 62
     7
100
AcDbLine
 10
69.35644837386548
 20
158.2388648865114
 30
0.0
 11
70.60644837386548
 21
159.4888648865114
 31
0.0
  0
LINE
  5
11B
330
1F
100
AcDbEntity
  8
0
  6
Continuous
 62
     2
100
AcDbLine
 10
58.01017011259609
 20
159.4891995411145
 30
0.0
 11
56.85653757632264
 21
157.9888648865114
 31
0.0
  0
LINE
  5
11C
330
1F
100
AcDbEntity
  8
0
  6
Continuous
 62
     2
100
AcDbLine
 10
76.85635917140831
 20
157.9888648865114
 30
0.0
 11
75.70272663513487
 21
159.4891995411145
 31
0.0
  0
LINE
  5
11D
330
1F
100
AcDbEntity
  8
0
  6
Continuous
 62
     7
100
AcDbLine
 10
78.85644837386548
 20
180.8860587972792
 30
0.0
 11
78.72234602618795
 21
180.8501261815123
 31
0.0
  0
LINE
  5
11E
330
1F
100
AcDbEntity
  8
0
  6
Continuous
 62
     7
100
AcDbLine
 10
78.85644837386548
 20
180.8860587972792
 30
0.0
 11
78.85644837386548
 21
159.4888648865114
 31
0.0
  0
LINE
  5
11F
330
1F
100
AcDbEntity
  8
0
  6
Continuous
 62
     7
100
AcDbLine
 10
80.35644837386548
 20
153.9888648865114
 30
0.0
 11
80.35644837386548
 21
157.988864885634
 31
0.0
  0
LINE
  5
120
330
1F
100
AcDbEntity
  8
0
  6
Continuous
 62
     7
100
AcDbLine
 10
80.35644837386548
 20
153.9888648865114
 30
0.0
 11
76.85644837386548
 21
153.9888648865114
 31
0.0
  0
LINE
  5
121
330
1F
100
AcDbEntity
  8
0
  6
Continuous
 62
     2
100
AcDbLine
 10
76.85644837386548
 20
153.9888648865114
 30
0.0
 11
76.85644837386548
 21
157.988864885634
 31
0.0
  0
LINE
  5
122
330
1F
100
AcDbEntity
  8
0
  6
Continuous
 62
     2
100
AcDbLine
 10
75.65644837386043
 20
180.9763915654801
 30
0.0
 11
75.65644837386554
 21
159.4888648865114
 31
0.0
  0
LINE
  5
123
330
1F
100
AcDbEntity
  8
0
  6
Continuous
 62
     7
100
AcDbLine
 10
78.85644837386548
 20
159.4888648865114
 30
0.0
 11
80.35644837386548
 21
157.988864885634
 31
0.0
  0
LINE
  5
124
330
1F
100
AcDbEntity
  8
0
  6
Continuous
 62
     2
100
AcDbLine
 10
69.35644837386548
 20
163.8888648865114
 30
0.0
 11
70.60644837386548
 21
163.8888648865114
 31
0.0
  0
LINE
  5
125
330
1F
100
AcDbEntity
  8
0
  6
Continuous
 62
     2
100
AcDbLine
 10
64.35644837386548
 20
163.8888648865114
 30
0.0
 11
63.10644837386548
 21
163.8888648865114
 31
0.0
  0
LINE
  5
126
330
1F
100
AcDbEntity
  8
0
  6
Continuous
 62
     7
100
AcDbLine
 10
53.35644837386548
 20
153.9888648865114
 30
0.0
 11
53.35644837386548
 21
157.988864885634
 31
0.0
  0
LINE
  5
127
330
1F
100
AcDbEntity
  8
0
  6
Continuous
 62
     7
100
AcDbLine
 10
54.85644837386548
 20
159.4888648865114
 30
0.0
 11
54.85644837386548
 21
196.8848265504048
 31
0.0
  0
LINE
  5
128
330
1F
100
AcDbEntity
  8
0
  6
Continuous
 62
     7
100
AcDbLine
 10
56.85644837386548
 20
153.9888648865114
 30
0.0
 11
53.35644837386548
 21
153.9888648865114
 31
0.0
  0
LINE
  5
129
330
1F
100
AcDbEntity
  8
0
  6
Continuous
 62
     7
100
AcDbLine
 10
54.85678302846856
 20
159.4891995411145
 30
0.0
 11
54.85644837386548
 21
159.4888648865114
 31
0.0
  0
LINE
  5
12A
330
1F
100
AcDbEntity
  8
0
  6
Continuous
 62
     2
100
AcDbLine
 10
56.85644837386548
 20
153.9888648865114
 30
0.0
 11
56.85644837387014
 21
157.988864885634
 31
0.0
  0
LINE
  5
12B
330
1F
100
AcDbEntity
  8
0
  6
Continuous
 62
     7
100
AcDbLine
 10
54.85644837386548
 20
159.4888648865114
 30
0.0
 11
53.35644837386548
 21
157.988864885634
 31
0.0
  0
LINE
  5
12C
330
1F
100
AcDbEntity
  8
0
  6
Continuous
 62
     2
100
AcDbLine
 10
58.05644837386552
 20
159.4888648865114
 30
0.0
 11
58.05644837386552
 21
196.8982239592773
 31
0.0
  0
LINE
  5
12D
330
1F
100
AcDbEntity
  8
1
  6
DOT_CENTER
 62
     2
100
AcDbLine
 10
155.968162071007
 20
168.4888648865114
 30
0.0
 11
144.268162071007
 21
168.4888648865114
 31
0.0
  0
LINE
  5
12E
330
1F
100
AcDbEntity
  8
1
  6
DOT_CENTER
 62
     2
100
AcDbLine
 10
150.118162071007
 20
174.3388648865114
 30
0.0
 11
150.118162071007
 21
162.6388648865114
 31
0.0
  0
LINE
  5
12F
330
1F
100
AcDbEntity
  8
1
  6
Continuous
 62
     2
100
AcDbLine
 10
86.53664199814529
 20
204.6847602652313
 30
0.0
 11
86.54032134383164
 21
204.6857461429366
 31
0.0
  0
LINE
  5
130
330
1F
100
AcDbEntity
  8
0
  6
Continuous
 62
     7
100
AcDbLine
 10
86.52707696794295
 20
204.682197323113
 30
0.0
 11
91.76816263126881
 21
185.1221993407594
 31
0.0
  0
LINE
  5
131
330
1F
100
AcDbEntity
  8
1
  6
Continuous
 62
     2
100
AcDbLine
 10
91.22154755988976
 20
187.3051056797353
 30
0.0
 11
91.23925239374472
 21
187.3098496756689
 31
0.0
  0
ARC
  5
132
330
1F
100
AcDbEntity
  8
0
  6
Continuous
 62
     7
100
AcDbCircle
 10
155.118050990743
 20
181.0517856103415
 30
0.0
 40
0.1000000000000264
100
AcDbArc
 50
299.9816393688005
 51
60.01836063119136
  0
ARC
  5
133
330
1F
100
AcDbEntity
  8
0
  6
Continuous
 62
     7
100
AcDbCircle
 10
149.918162071007
 20
178.7905932065487
 30
0.0
 40
0.2000000000000604
100
AcDbArc
 50
240.0183606311631
 51
60.01836063116315
  0
ARC
  5
134
330
1F
100
AcDbEntity
  8
0
  6
Continuous
 62
     7
100
AcDbCircle
 10
150.118162071007
 20
181.2517856103414
 30
0.0
 40
0.0999999999999357
100
AcDbArc
 50
210.00000000001
 51
329.9999999999981
  0
ARC
  5
135
330
1F
100
AcDbEntity
  8
0
  6
Continuous
 62
     7
100
AcDbCircle
 10
152.5181620710069
 20
181.0517856103415
 30
0.0
 40
0.1999999999999034
100
AcDbArc
 50
270.0
 51
90.0
  0
ARC
  5
136
330
1F
100
AcDbEntity
  8
0
  6
Continuous
 62
     7
100
AcDbCircle
 10
150.918162071007
 20
179.1367470527025
 30
0.0
 40
0.2000000000001023
100
AcDbArc
 50
180.0
 51
0.0
  0
ARC
  5
137
330
1F
100
AcDbEntity
  8
0
  6
Continuous
 62
     7
100
AcDbCircle
 10
152.5181620710069
 20
180.0598239757794
 30
0.0
 40
0.1999999999999723
100
AcDbArc
 50
299.981639368842
 51
119.981639368832
  0
ARC
  5
138
330
1F
100
AcDbEntity
  8
0
  6
Continuous
 62
     7
100
AcDbCircle
 10
151.7181620710069
 20
179.598285514241
 30
0.0
 40
0.1999999999999886
100
AcDbArc
 50
180.0
 51
299.981639368849
  0
ARC
  5
139
330
1F
100
AcDbEntity
  8
0
  6
Continuous
 62
     7
100
AcDbCircle
 10
150.9591823435218
 20
182.9905159975622
 30
0.0
 40
0.158979727485189
100
AcDbArc
 50
0.0
 51
149.9999999999986
  0
ARC
  5
13A
330
1F
100
AcDbEntity
  8
0
  6
Continuous
 62
     7
100
AcDbCircle
 10
151.7181620710069
 20
182.5052857064419
 30
0.0
 40
0.2000000000000604
100
AcDbArc
 50
60.01836063116315
 51
180.0
  0
ARC
  5
13B
330
1F
100
AcDbEntity
  8
0
  6
Continuous
 62
     7
100
AcDbCircle
 10
152.5181620710069
 20
182.0437472449035
 30
0.0
 40
0.2000000000000604
100
AcDbArc
 50
240.0183606311631
 51
60.01836063115826
  0
ARC
  5
13C
330
1F
100
AcDbEntity
  8
0
  6
Continuous
 62
     7
100
AcDbCircle
 10
148.5181620710069
 20
182.5052857064419
 30
0.0
 40
0.1999999999999886
100
AcDbArc
 50
0.0
 51
180.0
  0
ARC
  5
13D
330
1F
100
AcDbEntity
  8
0
  6
Continuous
 62
     7
100
AcDbCircle
 10
147.7181620710069
 20
182.0437472449035
 30
0.0
 40
0.2000000000001023
100
AcDbArc
 50
0.0
 51
180.0
  0
ARC
  5
13E
330
1F
100
AcDbEntity
  8
0
  6
Continuous
 62
     7
100
AcDbCircle
 10
149.2771417984921
 20
182.9905159975622
 30
0.0
 40
0.1589797274851821
100
AcDbArc
 50
30.00000000000143
 51
180.0
  0
ARC
  5
13F
330
1F
100
AcDbEntity
  8
0
  6
Continuous
 62
     7
100
AcDbCircle
 10
147.7181620710069
 20
180.0598239757794
 30
0.0
 40
0.1999999999999886
100
AcDbArc
 50
180.0
 51
0.0
  0
ARC
  5
140
330
1F
100
AcDbEntity
  8
0
  6
Continuous
 62
     7
100
AcDbCircle
 10
148.7181620710069
 20
179.713798299161
 30
0.0
 40
0.399999999999892
100
AcDbArc
 50
180.0
 51
240.0183606311629
  0
ARC
  5
141
330
1F
100
AcDbEntity
  8
0
  6
Continuous
 62
     7
100
AcDbCircle
 10
149.318162071007
 20
180.0603366539212
 30
0.0
 40
0.2000000000000171
100
AcDbArc
 50
180.0
 51
0.0
  0
ARC
  5
142
330
1F
100
AcDbEntity
  8
0
  6
Continuous
 62
     7
100
AcDbCircle
 10
145.118273151271
 20
181.0517856103415
 30
0.0
 40
0.0999999999999175
100
AcDbArc
 50
119.9816393688553
 51
240.0183606311529
  0
ARC
  5
143
330
1F
100
AcDbEntity
  8
0
  6
Continuous
 62
     7
100
AcDbCircle
 10
141.318162071007
 20
162.6888648865114
 30
0.0
 40
3.200000000000006
100
AcDbArc
 50
269.1713620342432
 51
270.0
  0
ARC
  5
144
330
1F
100
AcDbEntity
  8
0
  6
Continuous
 62
     7
100
AcDbCircle
 10
158.918162071007
 20
162.6888648865114
 30
0.0
 40
3.199999999999989
100
AcDbArc
 50
270.0
 51
270.8286379657568
  0
ARC
  5
145
330
1F
100
AcDbEntity
  8
0
  6
Continuous
 62
     7
100
AcDbCircle
 10
58.05644837386552
 20
162.6888648865114
 30
0.0
 40
3.200000000000007
100
AcDbArc
 50
269.1713620342428
 51
270.0
  0
ARC
  5
146
330
1F
100
AcDbEntity
  8
0
  6
Continuous
 62
     7
100
AcDbCircle
 10
75.65644837386554
 20
162.6888648865114
 30
0.0
 40
3.199999999999989
100
AcDbArc
 50
270.0
 51
270.8286379657553
  0
ARC
  5
147
330
1F
100
AcDbEntity
  8
0
  6
Continuous
 62
     7
100
AcDbCircle
 10
66.85644837386548
 20
163.8888648865114
 30
0.0
 40
2.5
100
AcDbArc
 50
0.0
 51
180.0
  0
ARC
  5
148
330
1F
100
AcDbEntity
  8
0
  6
Continuous
 62
     7
100
AcDbCircle
 10
66.85644837386548
 20
163.8888648865114
 30
0.0
 40
3.75
100
AcDbArc
 50
0.0
 51
180.0
  0
ARC
  5
149
330
1F
100
AcDbEntity
  8
0
  6
Continuous
 62
     7
100
AcDbCircle
 10
66.85644837386548
 20
163.8888648865114
 30
0.0
 40
1.5
100
AcDbArc
 50
356.0263843561688
 51
183.9736156438312
  0
CIRCLE
  5
14A
330
1F
100
AcDbEntity
  8
0
  6
Continuous
 62
     7
100
AcDbCircle
 10
150.118162071007
 20
168.4888648865114
 30
0.0
 40
1.599999999999994
  0
CIRCLE
  5
14B
330
1F
100
AcDbEntity
  8
0
  6
Continuous
 62
     7
100
AcDbCircle
 10
150.118162071007
 20
168.4888648865114
 30
0.0
 40
3.5
  0
SPLINE
  5
14C
330
1F
100
AcDbEntity
  8
0
  6
Continuous
 62
     2
100
AcDbSpline
210
0.0
220
0.0
230
1.0
 70
     8
 71
     3
 72
    97
 73
    93
 74
    91
 42
0.000000001
 43
0.0000000001
 44
0.00000001
 40
0.0
 40
0.0
 40
0.0
 40
0.0
 40
0.0587812488388322
 40
0.1162278738798045
 40
0.1727031177453199
 40
0.2285620661340328
 40
0.2841526958206033
 40
0.3398174265622637
 40
0.3958950531144715
 40
0.4527228825511245
 40
0.5106388825093007
 40
0.554822310798495
 40
0.5999567898305218
 40
0.646173416479397
 40
0.6936052018341257
 40
0.7423872293762933
 40
0.7926567387461029
 40
0.7991999200504387
 40
0.8046923088114931
 40
0.8089741648167903
 40
0.8118857364975036
 40
0.8215465424204297
 40
0.8311993484196236
 40
0.8504793597250198
 40
0.8697262529714385
 40
0.9082019241514814
 40
0.9463612901522183
 40
1.022405556904926
 40
1.097816319074593
 40
1.161866695300937
 40
1.224171860745941
 40
1.284732923725577
 40
1.343550992321997
 40
1.40062717438364
 40
1.455962577525054
 40
1.509558309126598
 40
1.561415476334347
 40
1.611535186059818
 40
1.659918544979911
 40
1.706566659536684
 40
1.751480635937375
 40
1.794661580154122
 40
1.836110597924278
 40
1.875828794749973
 40
1.91381727589856
 40
1.95007714640278
 40
1.984609511060794
 40
2.017415474437236
 40
2.048496140863227
 40
2.077852614437962
 40
2.105485999029707
 40
2.13139739827781
 40
2.1555879155958
 40
2.178058654174849
 40
2.235803625806818
 40
2.291973042508844
 40
2.346553755469825
 40
2.3995326164478
 40
2.425564042959127
 40
2.451287340814835
 40
2.45765200354716
 40
2.463993094908824
 40
2.470310909563636
 40
2.476605021283502
 40
2.489144204240869
 40
2.501588909834961
 40
2.549889811903277
 40
2.598351194967244
 40
2.681517519593613
 40
2.763777182303177
 40
2.844882221578544
 40
2.924584418668435
 40
2.954176899612843
 40
2.982181714332714
 40
3.008577083540646
 40
3.033341020314616
 40
3.056451337493223
 40
3.077885655822659
 40
3.097621413347782
 40
3.115635876893709
 40
3.131906157157391
 40
3.145342135168386
 40
3.157352704067324
 40
3.167940155314029
 40
3.177106806725146
 40
3.184855120290502
 40
3.190271770948232
 40
3.194675198575359
 40
3.198080871141307
 40
3.20051941159157
 40
3.201994319614973
 40
3.202607322586521
 40
3.202607322586521
 40
3.202607322586521
 40
3.202607322586521
 10
158.918162071007
 20
196.8848265504048
 30
0.0
 10
158.9377561058314
 20
196.884940919795
 30
0.0
 10
158.9764992945438
 20
196.8851670477526
 30
0.0
 10
159.0340462269743
 20
196.8868809894527
 30
0.0
 10
159.0905855093933
 20
196.8893879500855
 30
0.0
 10
159.1464687922232
 20
196.892615093495
 30
0.0
 10
159.2020481415099
 20
196.8963582095512
 30
0.0
 10
159.2576758764098
 20
196.9004474571657
 30
0.0
 10
159.3137044734386
 20
196.9047038806058
 30
0.0
 10
159.3704863921983
 20
196.9089510675705
 30
0.0
 10
159.423332640439
 20
196.9126583196194
 30
0.0
 10
159.4723128370343
 20
196.9157603041358
 30
0.0
 10
159.5174211913921
 20
196.9182801788219
 30
0.0
 10
159.5636319825989
 20
196.9204491282351
 30
0.0
 10
159.611077733622
 20
196.9221917916045
 30
0.0
 10
159.6598908050943
 20
196.923432838054
 30
0.0
 10
159.6950870693699
 20
196.9238974190096
 30
0.0
 10
159.7158550552581
 20
196.9240217765441
 30
0.0
 10
159.7212941456815
 20
196.9240460197095
 30
0.0
 10
159.7255227301294
 20
196.9240596312767
 30
0.0
 10
159.7311407942124
 20
196.9240721764031
 30
0.0
 10
159.738549170914
 20
196.9240883696368
 30
0.0
 10
159.7514136797755
 20
196.924117187025
 30
0.0
 10
159.767473541717
 20
196.9241537208252
 30
0.0
 10
159.7931409970977
 20
196.9242136174549
 30
0.0
 10
159.8251015472514
 20
196.9242908823322
 30
0.0
 10
159.8759944855973
 20
196.9244197103268
 30
0.0
 10
159.9391990537054
 20
196.9245905199778
 30
0.0
 10
160.0110338799605
 20
196.9248013747913
 30
0.0
 10
160.0782889802554
 20
196.9250135804648
 30
0.0
 10
160.1405941639905
 20
196.925222891267
 30
0.0
 10
160.2011552122721
 20
196.925438689319
 30
0.0
 10
160.2599732332971
 20
196.9256602403743
 30
0.0
 10
160.3170493352542
 20
196.9258868114437
 30
0.0
 10
160.3723846263339
 20
196.9261176692226
 30
0.0
 10
160.4259802147262
 20
196.9263520804959
 30
0.0
 10
160.4778372086205
 20
196.9265893120353
 30
0.0
 10
160.5279567162069
 20
196.9268286306279
 30
0.0
 10
160.5763398456746
 20
196.9270693030704
 30
0.0
 10
160.622987705213
 20
196.9273105961732
 30
0.0
 10
160.6679014030113
 20
196.9275517767631
 30
0.0
 10
160.7110820472584
 20
196.9277921116858
 30
0.0
 10
160.7525307461431
 20
196.9280308678107
 30
0.0
 10
160.7922486078537
 20
196.9282673120352
 30
0.0
 10
160.8302367405787
 20
196.9285007112929
 30
0.0
 10
160.8664962525054
 20
196.9287303325582
 30
0.0
 10
160.9010282518213
 20
196.9289554428678
 30
0.0
 10
160.9338338467131
 20
196.9291753093012
 30
0.0
 10
160.9649141453664
 20
196.929389199118
 30
0.0
 10
160.9942702559676
 20
196.9295963793758
 30
0.0
 10
161.0219032866955
 20
196.9297961183687
 30
0.0
 10
161.04781434575
 20
196.9299876809002
 30
0.0
 10
161.0720045412515
 20
196.9301703445354
 30
0.0
 10
161.1068055857668
 20
196.9304382790738
 30
0.0
 10
161.1522658549645
 20
196.9308002538238
 30
0.0
 10
161.2084289232988
 20
196.9312703098402
 30
0.0
 10
161.2630031447829
 20
196.9317502591025
 30
0.0
 10
161.3075315789081
 20
196.9321617304968
 30
0.0
 10
161.3424411666058
 20
196.9324967673253
 30
0.0
 10
161.3618133583478
 20
196.9326873584754
 30
0.0
 10
161.3746224016624
 20
196.9328154724334
 30
0.0
 10
161.3809632713789
 20
196.9328791637618
 30
0.0
 10
161.387280616195
 20
196.9329435222315
 30
0.0
 10
161.3956638781884
 20
196.9330295034249
 30
0.0
 10
161.4060894637737
 20
196.9331234303905
 30
0.0
 10
161.4305171593509
 20
196.933291181575
 30
0.0
 10
161.466919857415
 20
196.9333620104583
 30
0.0
 10
161.526895529641
 20
196.9330081022157
 30
0.0
 10
161.5981839023656
 20
196.9318303166951
 30
0.0
 10
161.6803265649342
 20
196.9293720053329
 30
0.0
 10
161.761275092604
 20
196.9258595785495
 30
0.0
 10
161.8246408923411
 20
196.9222448307444
 30
0.0
 10
161.8703059492921
 20
196.9191970091022
 30
0.0
 10
161.8982314268165
 20
196.9171875130927
 30
0.0
 10
161.9245417397039
 20
196.9151622939181
 30
0.0
 10
161.9492160301799
 20
196.9131448376932
 30
0.0
 10
161.9722334230016
 20
196.9111586314716
 30
0.0
 10
161.9935730454291
 20
196.9092271478934
 30
0.0
 10
162.0132140233394
 20
196.907373831907
 30
0.0
 10
162.0311354769104
 20
196.9056221222945
 30
0.0
 10
162.0469626213859
 20
196.9040309071644
 30
0.0
 10
162.0607957911793
 20
196.9026136032781
 30
0.0
 10
162.072743501766
 20
196.9013781687728
 30
0.0
 10
162.0832756899969
 20
196.9002927509602
 30
0.0
 10
162.0923974433333
 20
196.8993705734296
 30
0.0
 10
162.0998053606751
 20
196.8986611486594
 30
0.0
 10
162.1056437871539
 20
196.8981434522261
 30
0.0
 10
162.110028998038
 20
196.8978381760654
 30
0.0
 10
162.1134703573042
 20
196.8976119078632
 30
0.0
 10
162.115844423095
 20
196.8977065538709
 30
0.0
 10
162.117473330597
 20
196.8976136049414
 30
0.0
 10
162.118005750707
 20
196.8980854362568
 30
0.0
 10
162.118162071007
 20
196.8982239592773
 30
0.0
 11
158.918162071007
 21
196.8848265504048
 31
0.0
 11
158.976940452981
 21
196.8854068442464
 31
0.0
 11
159.0343641173444
 21
196.8870308936139
 31
0.0
 11
159.0907843289946
 21
196.8895234613552
 31
0.0
 11
159.1465523528288
 21
196.8927093103186
 31
0.0
 11
159.202019453744
 21
196.8964132033523
 31
0.0
 11
159.2575368966374
 21
196.9004599033044
 31
0.0
 11
159.3134559464063
 21
196.904674173023
 31
0.0
 11
159.3701278679478
 21
196.9088807753564
 31
0.0
 11
159.4279039261592
 21
196.9129044731526
 31
0.0
 11
159.471999703568
 21
196.9156861537739
 31
0.0
 11
159.5170644571344
 21
196.9181939775534
 31
0.0
 11
159.5632306380427
 21
196.9203527539102
 31
0.0
 11
159.6106306974771
 21
196.9220872922634
 31
0.0
 11
159.6593970866216
 21
196.9233224020323
 31
0.0
 11
159.7096622566604
 21
196.9239828926361
 31
0.0
 11
159.7162053206776
 21
196.9240220685592
 31
0.0
 11
159.7216976548533
 21
196.9240465540266
 31
0.0
 11
159.7259794888742
 21
196.9240602735888
 31
0.0
 11
159.7288910524272
 21
196.924067151796
 31
0.0
 11
159.7385518348127
 21
196.9240884725422
 31
0.0
 11
159.7482046166948
 21
196.9241100455048
 31
0.0
 11
159.7674845780031
 21
196.9241539444126
 31
0.0
 11
159.7867314188462
 21
196.924198849528
 31
0.0
 11
159.8252069775218
 21
196.9242918799123
 31
0.0
 11
159.8633662212179
 21
196.9243884807135
 31
0.0
 11
159.9394102100248
 21
196.9245940628875
 31
0.0
 11
160.0148206470652
 21
196.924815489373
 31
0.0
 11
160.0788707042672
 21
196.9250176355831
 31
0.0
 11
160.1411755179172
 21
196.9252270009499
 31
0.0
 11
160.2017361962059
 21
196.9254428521806
 31
0.0
 11
160.2605538473233
 21
196.9256644559823
 31
0.0
 11
160.3176295794598
 21
196.9258910790622
 31
0.0
 11
160.3729645008057
 21
196.9261219881273
 31
0.0
 11
160.4265597195513
 21
196.9263564498848
 31
0.0
 11
160.478416343887
 21
196.9265937310419
 31
0.0
 11
160.528535482003
 21
196.9268330983058
 31
0.0
 11
160.5769182420897
 21
196.9270738183835
 31
0.0
 11
160.6235657323373
 21
196.9273151579821
 31
0.0
 11
160.6684790609362
 21
196.9275563838088
 31
0.0
 11
160.7116593360767
 21
196.9277967625707
 31
0.0
 11
160.7531076659491
 21
196.9280355609751
 31
0.0
 11
160.7928251587437
 21
196.928272045729
 31
0.0
 11
160.8308129226508
 21
196.9285054835395
 31
0.0
 11
160.8670720658608
 21
196.9287351411139
 31
0.0
 11
160.9016036965639
 21
196.928960285159
 31
0.0
 11
160.9344089229505
 21
196.9291801823823
 31
0.0
 11
160.9654888532108
 21
196.9293940994908
 31
0.0
 11
160.9948445955351
 21
196.9296013031916
 31
0.0
 11
161.022477258114
 21
196.9298010601919
 31
0.0
 11
161.0483879491374
 21
196.9299926371988
 31
0.0
 11
161.0725777767958
 21
196.9301753009194
 31
0.0
 11
161.0950478492796
 21
196.9303483180609
 31
0.0
 11
161.1527909879112
 21
196.9308084162408
 31
0.0
 11
161.2089584351155
 21
196.9312787862274
 31
0.0
 11
161.2635370347945
 21
196.9317590833124
 31
0.0
 11
161.3165136308501
 21
196.9322489627875
 31
0.0
 11
161.3425438582885
 21
196.9324988147489
 31
0.0
 11
161.3682659103677
 21
196.932751974214
 31
0.0
 11
161.374630255009
 21
196.9328156059876
 31
0.0
 11
161.3809710254404
 21
196.9328794026486
 31
0.0
 11
161.3872885130616
 21
196.9329436847565
 31
0.0
 11
161.3935823033986
 21
196.9330072894432
 31
0.0
 11
161.4061209866825
 21
196.9331192306234
 31
0.0
 11
161.418565397176
 21
196.9332049328432
 31
0.0
 11
161.4668662079393
 21
196.933298854918
 31
0.0
 11
161.5153267492304
 21
196.9330132200014
 31
0.0
 11
161.5984817136021
 21
196.9316386455062
 31
0.0
 11
161.6807044749923
 21
196.929174985442
 31
0.0
 11
161.7617330428725
 21
196.9256538229632
 31
0.0
 11
161.841305426714
 21
196.9211067412237
 31
0.0
 11
161.870832181485
 21
196.9191355280688
 31
0.0
 11
161.898764741188
 21
196.9171251161616
 31
0.0
 11
161.9250822352525
 21
196.9150990308157
 31
0.0
 11
161.9497637931081
 21
196.9130807973447
 31
0.0
 11
161.9727885441843
 21
196.9110939410624
 31
0.0
 11
161.9941356179105
 21
196.9091619872823
 31
0.0
 11
162.0137841437163
 21
196.9073084613181
 31
0.0
 11
162.0317132510313
 21
196.9055568884835
 31
0.0
 11
162.0479020692849
 21
196.9039307940921
 31
0.0
 11
162.061268242622
 21
196.902562980155
 31
0.0
 11
162.0732153684789
 21
196.901330118256
 31
0.0
 11
162.0837473578607
 21
196.9002478415516
 31
0.0
 11
162.0928681217725
 21
196.8993317831984
 31
0.0
 11
162.1005815712196
 21
196.8985975763532
 31
0.0
 11
162.1059782347904
 21
196.8981326830752
 31
0.0
 11
162.110370378192
 21
196.8978176431787
 31
0.0
 11
162.113772402287
 21
196.8976600475709
 31
0.0
 11
162.1162109288641
 21
196.8976681727095
 31
0.0
 11
162.1176742409044
 21
196.8978527566047
 31
0.0
 11
162.118162071007
 21
196.8982239592773
 31
0.0
  0
SPLINE
  5
14D
330
1F
100
AcDbEntity
  8
0
  6
Continuous
 62
     2
100
AcDbSpline
210
0.0
220
0.0
230
1.0
 70
     8
 71
     3
 72
    95
 73
    91
 74
    89
 42
0.000000001
 43
0.0000000001
 44
0.00000001
 40
0.0
 40
0.0
 40
0.0
 40
0.0
 40
0.0005391761242025
 40
0.0018566294102474
 40
0.0040567315616768
 40
0.0071414875818039
 40
0.0111083852068285
 40
0.0159523627487562
 40
0.0229384598560394
 40
0.0311593466438328
 40
0.0406070760732388
 40
0.051273796068922
 40
0.0631518766153463
 40
0.0779581496753887
 40
0.094203982421813
 40
0.1118837307444226
 40
0.1309923322743736
 40
0.1515253263330784
 40
0.1734788686908039
 40
0.1968497429217689
 40
0.2216353693977388
 40
0.2478338125519405
 40
0.2838396909220773
 40
0.3187271247732111
 40
0.3523513181844705
 40
0.3845655848032501
 40
0.4102559461176888
 40
0.4367851372869567
 40
0.4641581128582917
 40
0.4747241369834369
 40
0.4852446350055094
 40
0.4905951735754335
 40
0.4959676630916811
 40
0.5013731169696212
 40
0.5068054890084577
 40
0.528897269364403
 40
0.5512409622051514
 40
0.5750177935688963
 40
0.6000635184953096
 40
0.6264023897892617
 40
0.6540586606382631
 40
0.6830565845964583
 40
0.713420415569077
 40
0.7451744077973737
 40
0.778342815844333
 40
0.8129498945813864
 40
0.8490198991743936
 40
0.8865770850721988
 40
0.9256457079940783
 40
0.9662500239184018
 40
0.9960320491205005
 40
1.027320183610565
 40
1.060125314590991
 40
1.094458329510853
 40
1.130330116063153
 40
1.167751562182099
 40
1.20673355604016
 40
1.247286986045052
 40
1.289422740836531
 40
1.333151709283556
 40
1.378484780481017
 40
1.425432843746603
 40
1.474006788617861
 40
1.523549890680974
 40
1.572263106594109
 40
1.620057181394897
 40
1.666842859723599
 40
1.712530885857276
 40
1.75703200374002
 40
1.775258412621059
 40
1.793542812248095
 40
1.798849136266601
 40
1.80510822859169
 40
1.812379115295344
 40
1.820720826935108
 40
1.830192399753224
 40
1.866786896649079
 40
1.903194279804292
 40
1.975899815860777
 40
2.048066528527699
 40
2.19177288357533
 40
2.334642920928363
 40
2.477190242811385
 40
2.619922611977763
 40
2.715486084582843
 40
2.8114565250663
 40
2.908015839427591
 40
3.005348457206248
 40
3.103641942456453
 40
3.203087525514553
 40
3.203087525514553
 40
3.203087525514553
 40
3.203087525514553
 10
138.118162071007
 20
196.898223951496
 30
0.0
 10
138.1183030841308
 20
196.8981051098253
 30
0.0
 10
138.1187886444633
 20
196.8976958665336
 30
0.0
 10
138.1202547845268
 20
196.8979168119116
 30
0.0
 10
138.1223857148225
 20
196.8979986910223
 30
0.0
 10
138.1254698667823
 20
196.8984626884561
 30
0.0
 10
138.1293775764304
 20
196.899050590202
 30
0.0
 10
138.1345758884274
 20
196.8999231146547
 30
0.0
 10
138.1411608926313
 20
196.9010542861985
 30
0.0
 10
138.1492587972407
 20
196.9024601063061
 30
0.0
 10
138.1585674778764
 20
196.9040582018364
 30
0.0
 10
138.1690844952822
 20
196.9058244206834
 30
0.0
 10
138.181373246868
 20
196.9078241471129
 30
0.0
 10
138.195512303182
 20
196.9100307270879
 30
0.0
 10
138.2115811972929
 20
196.9124102999666
 30
0.0
 10
138.2290901621961
 20
196.9148512205811
 30
0.0
 10
138.2480376624633
 20
196.917317915374
 30
0.0
 10
138.2684221696086
 20
196.9197748108139
 30
0.0
 10
138.2902421570012
 20
196.9221863082755
 30
0.0
 10
138.3134960969515
 20
196.9245167972026
 30
0.0
 10
138.3381824753231
 20
196.9267306651071
 30
0.0
 10
138.3670897351496
 20
196.9290124944737
 30
0.0
 10
138.3993838571852
 20
196.9311542747984
 30
0.0
 10
138.4341758474117
 20
196.9329855455602
 30
0.0
 10
138.4677251651556
 20
196.9343269162415
 30
0.0
 10
138.4982232138811
 20
196.9351900764028
 30
0.0
 10
138.5263633936634
 20
196.9357078297693
 30
0.0
 10
138.5528933149142
 20
196.9359655192507
 30
0.0
 10
138.5743830039626
 20
196.9359868143814
 30
0.0
 10
138.5905359900785
 20
196.9359064680172
 30
0.0
 10
138.5993480595868
 20
196.9358335286815
 30
0.0
 10
138.6064288350273
 20
196.9357579845804
 30
0.0
 10
138.6118045768879
 20
196.9356907090774
 30
0.0
 10
138.6172075309639
 20
196.9356183689552
 30
0.0
 10
138.6281831208531
 20
196.9354742867201
 30
0.0
 10
138.6448043519711
 20
196.9352597689472
 30
0.0
 10
138.6675399962141
 20
196.93497438157
 30
0.0
 10
138.6912603116239
 20
196.9346847566503
 30
0.0
 10
138.7163123575457
 20
196.9343874774015
 30
0.0
 10
138.7426575639571
 20
196.934083833063
 30
0.0
 10
138.7703201887661
 20
196.9337743569739
 30
0.0
 10
138.7993244898367
 20
196.9334595792901
 30
0.0
 10
138.8296947250477
 20
196.93314003114
 30
0.0
 10
138.8614551522744
 20
196.9328162434183
 30
0.0
 10
138.894630029395
 20
196.9324887471257
 30
0.0
 10
138.9292436142878
 20
196.9321580732688
 30
0.0
 10
138.9653201648315
 20
196.9318247528759
 30
0.0
 10
139.002883938909
 20
196.9314893170194
 30
0.0
 10
139.0419591943888
 20
196.931152296688
 30
0.0
 10
139.078442918827
 20
196.9308485814786
 30
0.0
 10
139.1123333064716
 20
196.9305749725439
 30
0.0
 10
139.1436241029417
 20
196.9303289283406
 30
0.0
 10
139.1764319031684
 20
196.930077926743
 30
0.0
 10
139.2107675982104
 20
196.9298225922112
 30
0.0
 10
139.2466420791155
 20
196.9295635493256
 30
0.0
 10
139.2840662369354
 20
196.9293014226839
 30
0.0
 10
139.3230509627209
 20
196.9290368369203
 30
0.0
 10
139.3636071475238
 20
196.9287704166975
 30
0.0
 10
139.4057456823956
 20
196.9285027866856
 30
0.0
 10
139.4494774583887
 20
196.92823457163
 30
0.0
 10
139.4948133665546
 20
196.9279663960692
 30
0.0
 10
139.5417642979491
 20
196.9276988854284
 30
0.0
 10
139.590118608895
 20
196.9274338813065
 30
0.0
 10
139.6390613518708
 20
196.9271761977142
 30
0.0
 10
139.6877441940917
 20
196.9269300304188
 30
0.0
 10
139.7355079537286
 20
196.9266979826687
 30
0.0
 10
139.7822633704779
 20
196.9264796107719
 30
0.0
 10
139.8279211847337
 20
196.9262746487232
 30
0.0
 10
139.8640593642012
 20
196.9261182509507
 30
0.0
 10
139.8910631026482
 20
196.9260051267548
 30
0.0
 10
139.9050020236675
 20
196.9259464929021
 30
0.0
 10
139.9149518844413
 20
196.9259071297632
 30
0.0
 10
139.9212305991989
 20
196.9258813100608
 30
0.0
 10
139.9285210811516
 20
196.9258466741949
 30
0.0
 10
139.9368823422868
 20
196.9257999408944
 30
0.0
 10
139.9550178797218
 20
196.9256808112023
 30
0.0
 10
139.9825079898281
 20
196.9254326488791
 30
0.0
 10
140.0310732639597
 20
196.9248130590168
 30
0.0
 10
140.0914904725794
 20
196.9237225599721
 30
0.0
 10
140.1876554412224
 20
196.9213854999608
 30
0.0
 10
140.3071755925918
 20
196.9175100598644
 30
0.0
 10
140.4501041678061
 20
196.9118188857572
 30
0.0
 10
140.5926854418409
 20
196.9056048278966
 30
0.0
 10
140.7195124540706
 20
196.900068809649
 30
0.0
 10
140.8308428283403
 20
196.8955436600561
 30
0.0
 10
140.926809945527
 20
196.8920306097204
 30
0.0
 10
141.0233849103797
 20
196.8890300786054
 30
0.0
 10
141.1207531826564
 20
196.8867167912921
 30
0.0
 10
141.2191001274693
 20
196.8851418722693
 30
0.0
 10
141.2850134118106
 20
196.8849320660637
 30
0.0
 10
141.318162071007
 20
196.8848265447145
 30
0.0
 11
138.118162071007
 21
196.898223951496
 31
0.0
 11
138.1186007461214
 21
196.897910467619
 31
0.0
 11
138.1199167172028
 21
196.8978479938681
 31
0.0
 11
138.1221099028588
 21
196.8980223057541
 31
0.0
 11
138.1251692431983
 21
196.8984174705377
 31
0.0
 11
138.1290904777485
 21
196.8990176333795
 31
0.0
 11
138.1338696807314
 21
196.8998071500243
 31
0.0
 11
138.1407554994751
 21
196.900986578776
 31
0.0
 11
138.1488560919021
 21
196.9023877858546
 31
0.0
 11
138.1581679738621
 21
196.9039841709193
 31
0.0
 11
138.1686876612047
 21
196.9057491336289
 31
0.0
 11
138.1804116697796
 21
196.9076560736425
 31
0.0
 11
138.1950409476755
 21
196.9099386051513
 31
0.0
 11
138.2111115203774
 21
196.9123184737861
 31
0.0
 11
138.2286218675636
 21
196.9147600393411
 31
0.0
 11
138.2475704689124
 21
196.917227661611
 31
0.0
 11
138.2679558041023
 21
196.9196857003901
 31
0.0
 11
138.2897763528114
 21
196.9220985154728
 31
0.0
 11
138.3130305947181
 21
196.9244304666537
 31
0.0
 11
138.3377170095008
 21
196.9266459137272
 31
0.0
 11
138.3638340768376
 21
196.9287092164877
 31
0.0
 11
138.3997607618809
 21
196.9310959675519
 31
0.0
 11
138.43459979677
 21
196.9329330005544
 31
0.0
 11
138.4681970403099
 21
196.9342789613726
 31
0.0
 11
138.500398351305
 21
196.9351924958837
 31
0.0
 11
138.5260843465552
 21
196.9356661131494
 31
0.0
 11
138.5526122761221
 21
196.9359248367341
 31
0.0
 11
138.5799852371125
 21
196.9359531069871
 31
0.0
 11
138.5905511306458
 21
196.935900573192
 31
0.0
 11
138.6010712701189
 21
196.9358137155915
 31
0.0
 11
138.6064215020195
 21
196.9357564300373
 31
0.0
 11
138.611793581763
 21
196.9356900759183
 31
0.0
 11
138.6171985648291
 21
196.9356187336484
 31
0.0
 11
138.6226304667677
 21
196.9355472680303
 31
0.0
 11
138.6447204072784
 21
196.9352621573356
 31
0.0
 11
138.6670623389426
 21
196.9349816224605
 31
0.0
 11
138.6908373972508
 21
196.9346912559641
 31
0.0
 11
138.7158813579938
 21
196.9343939884762
 31
0.0
 11
138.74221847906
 21
196.9340903512656
 31
0.0
 11
138.7698730183375
 21
196.9337808756014
 31
0.0
 11
138.7988692337148
 21
196.9334660927525
 31
0.0
 11
138.8292313830802
 21
196.9331465339877
 31
0.0
 11
138.8609837243218
 21
196.9328227305761
 31
0.0
 11
138.894150515328
 21
196.9324952137864
 31
0.0
 11
138.9287560139873
 21
196.9321645148879
 31
0.0
 11
138.9648244781876
 21
196.9318311651492
 31
0.0
 11
139.0023801658174
 21
196.9314956958393
 31
0.0
 11
139.0414473347652
 21
196.9311586382273
 31
0.0
 11
139.0820502429189
 21
196.930820523582
 31
0.0
 11
139.1118312972832
 21
196.9305800526707
 31
0.0
 11
139.1431184642365
 21
196.9303339956478
 31
0.0
 11
139.1759226348341
 21
196.9300829773503
 31
0.0
 11
139.2102547001312
 21
196.9298276226149
 31
0.0
 11
139.246125551183
 21
196.9295685562787
 31
0.0
 11
139.2835460790446
 21
196.9293064031785
 31
0.0
 11
139.3225271747713
 21
196.9290417881514
 31
0.0
 11
139.3630797294183
 21
196.9287753360341
 31
0.0
 11
139.4052146340407
 21
196.9285076716636
 31
0.0
 11
139.4489427796939
 21
196.9282394198768
 31
0.0
 11
139.4942750574329
 21
196.9279712055106
 31
0.0
 11
139.541222358313
 21
196.9277036534019
 31
0.0
 11
139.5897955733893
 21
196.9274373883876
 31
0.0
 11
139.6393379884668
 21
196.9271764865704
 31
0.0
 11
139.6880505813519
 21
196.9269301161729
 31
0.0
 11
139.7358440918665
 21
196.9266978705289
 31
0.0
 11
139.7826292598325
 21
196.9264793429722
 31
0.0
 11
139.8283168250716
 21
196.9262741268365
 31
0.0
 11
139.8728175274059
 21
196.9260818154556
 31
0.0
 11
139.8910437751063
 21
196.9260051649518
 31
0.0
 11
139.9093280181184
 21
196.9259294878532
 31
0.0
 11
139.914634299711
 21
196.9259082691266
 31
0.0
 11
139.9208933372873
 21
196.9258820902807
 31
0.0
 11
139.9281641413914
 21
196.9258474332746
 31
0.0
 11
139.9365057225679
 21
196.925800780067
 31
0.0
 11
139.9459770913607
 21
196.9257386126168
 31
0.0
 11
139.9825701063763
 21
196.9254092883667
 31
0.0
 11
140.0189745416863
 21
196.9249459986745
 31
0.0
 11
140.0916684067174
 21
196.9236433253484
 31
0.0
 11
140.1638140507283
 21
196.9218996323218
 31
0.0
 11
140.3074475364034
 21
196.9173237971996
 31
0.0
 11
140.450207833269
 21
196.9117251181775
 31
0.0
 11
140.5926237538102
 21
196.90560592309
 31
0.0
 11
140.7352241105122
 21
196.8994685397714
 31
0.0
 11
140.8307097843529
 21
196.8956132333823
 31
0.0
 11
140.9266168449601
 21
196.8921259460069
 31
0.0
 11
141.0231304481313
 21
196.8891551555488
 31
0.0
 11
141.1204357496644
 21
196.8868493399117
 31
0.0
 11
141.218717905357
 21
196.8853569769991
 31
0.0
 11
141.318162071007
 21
196.8848265447145
 31
0.0
  0
SPLINE
  5
14E
330
1F
100
AcDbEntity
  8
0
  6
Continuous
 62
     2
100
AcDbSpline
210
0.0
220
0.0
230
1.0
 70
     8
 71
     3
 72
    13
 73
     9
 74
     7
 42
0.000000001
 43
0.0000000001
 44
0.00000001
 40
0.0
 40
0.0
 40
0.0
 40
0.0
 40
0.1930161049532348
 40
0.3855534284620888
 40
8.802033740423155
 40
17.21851405238422
 40
17.41105141351397
 40
17.60406748040085
 40
17.60406748040085
 40
17.60406748040085
 40
17.60406748040085
 10
141.318162071007
 20
196.8848265447145
 30
0.0
 10
141.3819227155034
 20
196.8760496594003
 30
0.0
 10
141.5092858427927
 20
196.8585176458878
 30
0.0
 10
144.4386628381892
 20
196.6722148075646
 30
0.0
 10
150.1181620742528
 20
197.0168085138042
 30
0.0
 10
155.7976613122482
 20
196.6722148563908
 30
0.0
 10
158.7270383132069
 20
196.8585176432651
 30
0.0
 10
158.854401439507
 20
196.8760496634641
 30
0.0
 10
158.918162071007
 20
196.8848265504048
 30
0.0
 11
141.318162071007
 21
196.8848265447145
 31
0.0
 11
141.5096825171696
 21
196.8608445653381
 31
0.0
 11
141.7016817605899
 21
196.8464601472416
 31
0.0
 11
150.1181620716283
 21
196.8464601472416
 31
0.0
 11
158.5346423826667
 21
196.8464601472416
 31
0.0
 11
158.7266416636535
 21
196.8608445674706
 31
0.0
 11
158.918162071007
 21
196.8848265504048
 31
0.0
  0
SPLINE
  5
14F
330
1F
100
AcDbEntity
  8
0
  6
Continuous
 62
     2
100
AcDbSpline
210
0.0
220
0.0
230
1.0
 70
     8
 71
     3
 72
    71
 73
    67
 74
    65
 42
0.000000001
 43
0.0000000001
 44
0.00000001
 40
0.0
 40
0.0
 40
0.0
 40
0.0
 40
0.0675393275383831
 40
0.135688001187433
 40
0.2044395202248598
 40
0.2737866170266006
 40
0.3437214682224612
 40
0.414235448916995
 40
0.4853193465783113
 40
0.5569631166034291
 40
0.6291560975795383
 40
0.7018867708667381
 40
0.7751429756812545
 40
0.8489116755937784
 40
0.9231791717468066
 40
0.9979308794450203
 40
1.073151537680709
 40
1.148824999120143
 40
1.224934434064162
 40
1.30146213714858
 40
1.37838972379731
 40
1.455697956952424
 40
1.53336693394504
 40
1.611375936452967
 40
1.689703605702372
 40
1.768327818545063
 40
1.847225848855459
 40
1.926374272281453
 40
2.005749111689381
 40
2.085325772639669
 40
2.165079170774741
 40
2.244983699487502
 40
2.325013337226414
 40
2.40514164815981
 40
2.485341867519748
 40
2.56558693535852
 40
2.645849558232491
 40
2.726102275457855
 40
2.8063174956752
 40
2.886467594312068
 40
2.966524923927202
 40
3.046461940899691
 40
3.126251188861592
 40
3.205865452095706
 40
3.285277711732056
 40
3.364461322901547
 40
3.44338994391245
 40
3.522037733799602
 40
3.600379255152357
 40
3.678389688552859
 40
3.756044710195029
 40
3.833320719594251
 40
3.910194693607647
 40
3.986644423839187
 40
4.062648349066169
 40
4.138185798878763
 40
4.213236806939148
 40
4.287782357573293
 40
4.361804182515159
 40
4.435285007541369
 40
4.508208335506672
 40
4.580558690421852
 40
4.652321389744043
 40
4.723482783612553
 40
4.794030019361244
 40
4.863951274090628
 40
4.863951274090628
 40
4.863951274090628
 40
4.863951274090628
 10
138.118162071007
 20
196.898223951496
 30
0.0
 10
138.118311567431
 20
196.9207375535412
 30
0.0
 10
138.1186119235343
 20
196.9659678772802
 30
0.0
 10
138.1210566304855
 20
197.0340797674299
 30
0.0
 10
138.1250086214585
 20
197.10272006207
 30
0.0
 10
138.130650050126
 20
197.1718416784834
 30
0.0
 10
138.1379798981271
 20
197.2413948930096
 30
0.0
 10
138.1470434689633
 20
197.3113277172155
 30
0.0
 10
138.1578722573788
 20
197.3815855265488
 30
0.0
 10
138.1704974633394
 20
197.452111664764
 30
0.0
 10
138.1849488383641
 20
197.5228468716485
 30
0.0
 10
138.2012518546015
 20
197.5937301705258
 30
0.0
 10
138.2194313325818
 20
197.6646980447392
 30
0.0
 10
138.2395069904626
 20
197.7356856591294
 30
0.0
 10
138.2614978507876
 20
197.8066257356512
 30
0.0
 10
138.2854172808381
 20
197.8774501567789
 30
0.0
 10
138.3112778615689
 20
197.9480884924381
 30
0.0
 10
138.3390860392037
 20
198.0184700283101
 30
0.0
 10
138.3688473994235
 20
198.088521900116
 30
0.0
 10
138.4005609883351
 20
198.1581715825319
 30
0.0
 10
138.4342249430681
 20
198.227344592937
 30
0.0
 10
138.4698305455612
 20
198.2959674671733
 30
0.0
 10
138.5073681509946
 20
198.3639650031249
 30
0.0
 10
138.5468210466056
 20
198.4312637381225
 30
0.0
 10
138.5881716095927
 20
198.4977887129868
 30
0.0
 10
138.6313950501897
 20
198.5634674528681
 30
0.0
 10
138.6764657226166
 20
198.628226244323
 30
0.0
 10
138.7233508361371
 20
198.6919946073336
 30
0.0
 10
138.7720168368894
 20
198.7547010911742
 30
0.0
 10
138.8224231722616
 20
198.8162782108782
 30
0.0
 10
138.8745286583875
 20
198.87665778151
 30
0.0
 10
138.9282853817542
 20
198.9357762781481
 30
0.0
 10
138.9836449670204
 20
198.9935697420836
 30
0.0
 10
139.0405526953381
 20
199.0499795101522
 30
0.0
 10
139.0989535900188
 20
199.10494673967
 30
0.0
 10
139.1587868237996
 20
199.1584184413465
 30
0.0
 10
139.2199915456465
 20
199.2103416817784
 30
0.0
 10
139.2825016394947
 20
199.260669844789
 30
0.0
 10
139.3462512238552
 20
199.3093565804407
 30
0.0
 10
139.4111698129302
 20
199.3563622129213
 30
0.0
 10
139.4771874312557
 20
199.4016475128182
 30
0.0
 10
139.5442302151322
 20
199.4451801658867
 30
0.0
 10
139.6122250967708
 20
199.4869284504114
 30
0.0
 10
139.6810958703351
 20
199.5268676804485
 30
0.0
 10
139.7507674133273
 20
199.564973872283
 30
0.0
 10
139.8211622279001
 20
199.6012300779832
 30
0.0
 10
139.8922041808978
 20
199.6356201242328
 30
0.0
 10
139.9638155180552
 20
199.6681347570161
 30
0.0
 10
140.0359201175353
 20
199.6987655325925
 30
0.0
 10
140.1084409627499
 20
199.7275107014838
 30
0.0
 10
140.1813029168735
 20
199.7543693253806
 30
0.0
 10
140.2544306296963
 20
199.7793468378307
 30
0.0
 10
140.3277508519247
 20
199.8024494528211
 30
0.0
 10
140.401190743034
 20
199.8236893500694
 30
0.0
 10
140.4746797538207
 20
199.8430794317239
 30
0.0
 10
140.5481482958176
 20
199.8606380901673
 30
0.0
 10
140.6215292283111
 20
199.8763843637191
 30
0.0
 10
140.6947568455322
 20
199.8903422373143
 30
0.0
 10
140.7677680100584
 20
199.9025363077711
 30
0.0
 10
140.8405014116363
 20
199.9129953171052
 30
0.0
 10
140.9128983925823
 20
199.9217493935697
 30
0.0
 10
140.9849024315067
 20
199.9288289613109
 30
0.0
 10
141.0564597082672
 20
199.9342777638952
 30
0.0
 10
141.1275187661337
 20
199.9380948317408
 30
0.0
 10
141.1980308667809
 20
199.9404560692605
 30
0.0
 10
141.2448545891838
 20
199.9407461706313
 30
0.0
 10
141.2681621183055
 20
199.9408905676331
 30
0.0
 11
138.118162071007
 21
196.898223951496
 31
0.0
 11
138.1189381561412
 21
196.9657588219776
 31
0.0
 11
138.1212937799602
 21
197.0338667726244
 31
0.0
 11
138.1252695304763
 21
197.1025032418079
 31
0.0
 11
138.1309041091822
 21
197.1716210502695
 31
0.0
 11
138.1382350780873
 21
197.2411706036396
 31
0.0
 11
138.1472976669925
 21
197.3110997893135
 31
0.0
 11
138.1581256859395
 21
197.3813541454505
 31
0.0
 11
138.1707501617254
 21
197.4518768540746
 31
0.0
 11
138.1852004217035
 21
197.5226088590021
 31
0.0
 11
138.2015025646477
 21
197.5934889761075
 31
0.0
 11
138.2196807185524
 21
197.664453941339
 31
0.0
 11
138.2397553554904
 21
197.7354386584426
 31
0.0
 11
138.2617447222322
 21
197.8063761573914
 31
0.0
 11
138.285663013425
 21
197.8771979984491
 31
0.0
 11
138.3115219695945
 21
197.9478341211534
 31
0.0
 11
138.339328927571
 21
198.0182134211844
 31
0.0
 11
138.3690885759087
 21
198.0882634706924
 31
0.0
 11
138.4008009057641
 21
198.1579112810789
 31
0.0
 11
138.4344631091218
 21
198.227082876906
 31
0.0
 11
138.470067457096
 21
198.295704253568
 31
0.0
 11
138.507603321759
 21
198.3637007892648
 31
0.0
 11
138.5470550118401
 21
198.4309984016843
 31
0.0
 11
138.5884038947079
 21
198.4975227857149
 31
0.0
 11
138.6316262214538
 21
198.5632007677984
 31
0.0
 11
138.6766953218414
 21
198.6279593609859
 31
0.0
 11
138.7235794516993
 21
198.6917273099303
 31
0.0
 11
138.7722440306656
 21
198.7544339594912
 31
0.0
 11
138.8226495445223
 21
198.8160109775641
 31
0.0
 11
138.8747537935221
 21
198.8763910385446
 31
0.0
 11
138.9285098807895
 21
198.9355097056819
 31
0.0
 11
138.9838684380499
 21
198.993303936087
 31
0.0
 11
139.040775728544
 21
199.0497140993112
 31
0.0
 11
139.0991758171869
 21
199.1046823159922
 31
0.0
 11
139.1590088127264
 21
199.1581545851633
 31
0.0
 11
139.2202129507385
 21
199.2100789737856
 31
0.0
 11
139.2827229952188
 21
199.2604078221136
 31
0.0
 11
139.346472205333
 21
199.309095806023
 31
0.0
 11
139.4113909114638
 21
199.3561021877021
 31
0.0
 11
139.4774083402119
 21
199.4013887766586
 31
0.0
 11
139.5444513743863
 21
199.4449221921441
 31
0.0
 11
139.612446215174
 21
199.4866717517736
 31
0.0
 11
139.681317330023
 21
199.5266117124953
 31
0.0
 11
139.7509889358739
 21
199.5647191177
 31
0.0
 11
139.8213841335564
 21
199.6009759851031
 31
0.0
 11
139.8924262014418
 21
199.6353671441146
 31
0.0
 11
139.9640379100144
 21
199.6678823415232
 31
0.0
 11
140.0361426207963
 21
199.6985141006012
 31
0.0
 11
140.1086637705446
 21
199.7272597189122
 31
0.0
 11
140.1815257756633
 21
199.7541191792615
 31
0.0
 11
140.2546536719634
 21
199.7790970179547
 31
0.0
 11
140.3279738297862
 21
199.8022003153911
 31
0.0
 11
140.4014137326311
 21
199.8234404175178
 31
0.0
 11
140.4749025126301
 21
199.8428310307329
 31
0.0
 11
140.5483708495565
 21
199.8603897838604
 31
0.0
 11
140.6217513400774
 21
199.8761364483102
 31
0.0
 11
140.6949784976878
 21
199.8900943324349
 31
0.0
 11
140.7679889720317
 21
199.902288643737
 31
0.0
 11
140.8407216302362
 21
199.9127477118167
 31
0.0
 11
140.9131176446186
 21
199.9215015050703
 31
0.0
 11
140.9851206363952
 21
199.928582682395
 31
0.0
 11
141.0566766513698
 21
199.9340252724926
 31
0.0
 11
141.1277343480301
 21
199.9378655579836
 31
0.0
 11
141.1982448812479
 21
199.9401409212627
 31
0.0
 11
141.2681621183055
 21
199.9408905676331
 31
0.0
  0
SPLINE
  5
150
330
1F
100
AcDbEntity
  8
0
  6
Continuous
 62
     2
100
AcDbSpline
210
0.0
220
0.0
230
1.0
 70
     8
 71
     3
 72
    13
 73
     9
 74
     7
 42
0.000000001
 43
0.0000000001
 44
0.00000001
 40
0.0
 40
0.0
 40
0.0
 40
0.0
 40
0.1916206657580301
 40
0.3836557992819973
 40
8.800136110560404
 40
17.21661642183881
 40
17.40865182273976
 40
17.60027283252239
 40
17.60027283252239
 40
17.60027283252239
 40
17.60027283252239
 10
141.3181626084621
 20
199.9274928270108
 30
0.0
 10
141.3819972911265
 20
199.929765462158
 30
0.0
 10
141.509804727834
 20
199.9343156623766
 30
0.0
 10
144.4428751433571
 20
199.9825137126317
 30
0.0
 10
150.1181620717844
 20
199.8933377794373
 30
0.0
 10
155.7934490887105
 20
199.9825136725144
 30
0.0
 10
158.7265197083397
 20
199.9343156603716
 30
0.0
 10
158.8543273489656
 20
199.9297654600743
 30
0.0
 10
158.9181621463559
 20
199.9274928244293
 30
0.0
 11
141.3181626084621
 21
199.9274928270108
 31
0.0
 11
141.5096827188161
 21
199.9336998262658
 31
0.0
 11
141.7016817605899
 21
199.9374227913666
 31
0.0
 11
150.1181620716283
 21
199.9374227913666
 31
0.0
 11
158.5346423826667
 21
199.9374227913666
 31
0.0
 11
158.7266416918489
 21
199.9336998252959
 31
0.0
 11
158.9181621463559
 21
199.9274928244293
 31
0.0
  0
SPLINE
  5
151
330
1F
100
AcDbEntity
  8
0
  6
Continuous
 62
     2
100
AcDbSpline
210
0.0
220
0.0
230
1.0
 70
     8
 71
     3
 72
    71
 73
    67
 74
    65
 42
0.000000001
 43
0.0000000001
 44
0.00000001
 40
0.0
 40
0.0
 40
0.0
 40
0.0
 40
0.0699212558226175
 40
0.1404684926365557
 40
0.2116298875425509
 40
0.2833925878749168
 40
0.3557429437709243
 40
0.428666272694584
 40
0.5021470986494705
 40
0.5761689244924607
 40
0.6507144760020394
 40
0.7257654849027761
 40
0.8013029355317006
 40
0.8773068615368453
 40
0.9537565925131146
 40
1.030630567242411
 40
1.10790657731685
 40
1.185561599594665
 40
1.263572033588421
 40
1.341913555489213
 40
1.420561345879716
 40
1.499489967335643
 40
1.578673578898671
 40
1.658085838870054
 40
1.737700102373667
 40
1.81748935054542
 40
1.897426367654238
 40
1.977483697331446
 40
2.057633795951966
 40
2.137849016070377
 40
2.218101733108117
 40
2.298364355707879
 40
2.378609423175646
 40
2.458809642065852
 40
2.538937952427168
 40
2.618967589487864
 40
2.698872117412914
 40
2.778625514647832
 40
2.858202174582523
 40
2.93757701285664
 40
3.016725435029159
 40
3.095623463962783
 40
3.174247675305225
 40
3.252575342929328
 40
3.330584343685932
 40
3.408253318800843
 40
3.485561549950073
 40
3.562489134470687
 40
3.63901683530195
 40
3.715126267864519
 40
3.790799726802232
 40
3.866020382415829
 40
3.940772087373877
 40
4.015039580671424
 40
4.088808277616372
 40
4.162064479354752
 40
4.234795149460794
 40
4.306988127154868
 40
4.378631893801538
 40
4.449715787992445
 40
4.52022976512958
 40
4.590164612685854
 40
4.659511705771253
 40
4.728263221020749
 40
4.796411890817628
 40
4.863951214439693
 40
4.863951214439693
 40
4.863951214439693
 40
4.863951214439693
 10
158.9681619159246
 20
199.9408903413039
 30
0.0
 10
158.9914694454212
 20
199.9407459459696
 30
0.0
 10
159.0382931685645
 20
199.9404558479488
 30
0.0
 10
159.1088052704428
 20
199.9380946153309
 30
0.0
 10
159.1798643296091
 20
199.9342775523256
 30
0.0
 10
159.2514216077459
 20
199.9288287545091
 30
0.0
 10
159.3234256481206
 20
199.9217491914658
 30
0.0
 10
159.3958226305897
 20
199.9129951196284
 30
0.0
 10
159.4685560337624
 20
199.9025361148503
 30
0.0
 10
159.5415671999527
 20
199.890342048879
 30
0.0
 10
159.6147948189038
 20
199.876384179699
 30
0.0
 10
159.6881757531937
 20
199.8606379104922
 30
0.0
 10
159.7616442970474
 20
199.8430792563244
 30
0.0
 10
159.8351333097511
 20
199.823689178877
 30
0.0
 10
159.9085732028349
 20
199.8024492857675
 30
0.0
 10
159.9818934270932
 20
199.7793466748487
 30
0.0
 10
160.0550211419983
 20
199.7543691664036
 30
0.0
 10
160.1278830982516
 20
199.7275105464476
 30
0.0
 10
160.2004039456406
 20
199.6987653814336
 30
0.0
 10
160.2725085473375
 20
199.6681346096722
 30
0.0
 10
160.3441198867482
 20
199.6356199806445
 30
0.0
 10
160.4151618420331
 20
199.601229938092
 30
0.0
 10
160.4855566589219
 20
199.5649737360332
 30
0.0
 10
160.5552282042558
 20
199.5268675477864
 30
0.0
 10
160.6240989801842
 20
199.4869283212841
 30
0.0
 10
160.6920938642044
 20
199.4451800402454
 30
0.0
 10
160.7591366504759
 20
199.4016473906149
 30
0.0
 10
160.8251542712042
 20
199.3563620941128
 30
0.0
 10
160.8900728626854
 20
199.3093564649854
 30
0.0
 10
160.9538224494512
 20
199.2606697326489
 30
0.0
 10
161.0163325457001
 20
199.2103415729176
 30
0.0
 10
161.0775372699374
 20
199.1584183357321
 30
0.0
 10
161.1373705060951
 20
199.1049466372725
 30
0.0
 10
161.1957714031329
 20
199.0499794109457
 30
0.0
 10
161.2526791337841
 20
198.9935696460453
 30
0.0
 10
161.3080387213557
 20
198.9357761852582
 30
0.0
 10
161.3617954469952
 20
198.8766576917524
 30
0.0
 10
161.4139009353569
 20
198.8162781242398
 30
0.0
 10
161.4643072729237
 20
198.7547010076456
 30
0.0
 10
161.5129732758254
 20
198.6919945269084
 30
0.0
 10
161.5598583914456
 20
198.6282261669983
 30
0.0
 10
161.604929065919
 20
198.5634673786447
 30
0.0
 10
161.6481525085052
 20
198.4977886418685
 30
0.0
 10
161.6895030734204
 20
198.4312636701164
 30
0.0
 10
161.7289559708956
 20
198.3639649382411
 30
0.0
 10
161.7664935781252
 20
198.295967405426
 30
0.0
 10
161.8020991823439
 20
198.227344534342
 30
0.0
 10
161.8357631387293
 20
198.1581715271081
 30
0.0
 10
161.8674767292167
 20
198.0885218478859
 30
0.0
 10
161.8972380909331
 20
198.0184699792997
 30
0.0
 10
161.9250462699828
 20
197.9480884466759
 30
0.0
 10
161.9509068520453
 20
197.8774501142949
 30
0.0
 10
161.9748262833422
 20
197.8066256964786
 30
0.0
 10
161.9968171448259
 20
197.7356856233037
 30
0.0
 10
162.016892803777
 20
197.664698012298
 30
0.0
 10
162.0350722827377
 20
197.593730141509
 30
0.0
 10
162.0513752998637
 20
197.5228468460981
 30
0.0
 10
162.0658266756853
 20
197.4521116427238
 30
0.0
 10
162.0784518823496
 20
197.3815855080643
 30
0.0
 10
162.0892806713758
 20
197.3113277023339
 30
0.0
 10
162.098344242728
 20
197.2413948817793
 30
0.0
 10
162.1056740911516
 20
197.1718416709547
 30
0.0
 10
162.111315520148
 20
197.102720058294
 30
0.0
 10
162.115267511354
 20
197.0340797674582
 30
0.0
 10
162.1177122184517
 20
196.9659678811667
 30
0.0
 10
162.1180125745738
 20
196.9207375600172
 30
0.0
 10
162.118162071007
 20
196.8982239592773
 30
0.0
 11
158.9681619159246
 21
199.9408903413039
 31
0.0
 11
159.0380791541288
 21
199.9401406999118
 31
0.0
 11
159.1085896885709
 21
199.9378653415415
 31
0.0
 11
159.1796473865317
 21
199.9340250608895
 31
0.0
 11
159.2512034028821
 21
199.9285824755607
 31
0.0
 11
159.3232063961064
 21
199.9215013029344
 31
0.0
 11
159.3956024120136
 21
199.9127475143082
 31
0.0
 11
159.4683350718116
 21
199.9022884507852
 31
0.0
 11
159.5413455478184
 21
199.8900941439693
 31
0.0
 11
159.6145727071615
 21
199.8761362642597
 31
0.0
 11
159.6879531994746
 21
199.8603896041562
 31
0.0
 11
159.7614215382621
 21
199.8428308553039
 31
0.0
 11
159.8349103201762
 21
199.8234402462968
 31
0.0
 11
159.9083502249936
 21
199.8022001483099
 31
0.0
 11
159.9816703848498
 21
199.7790968549444
 31
0.0
 11
160.0547982832316
 21
199.7541190202569
 31
0.0
 11
160.1276602904805
 21
199.7272595638484
 31
0.0
 11
160.2001814424039
 21
199.6985139494148
 31
0.0
 11
160.2722861554021
 21
199.6678821941523
 31
0.0
 11
160.3438978662319
 21
199.6353670004976
 31
0.0
 11
160.4149399364022
 21
199.6009758451845
 31
0.0
 11
160.4853351364025
 21
199.5647189814221
 31
0.0
 11
160.5550067445969
 21
199.5266115798039
 31
0.0
 11
160.6238778618082
 21
199.4866716226183
 31
0.0
 11
160.6918727049809
 21
199.4449220664722
 31
0.0
 11
160.7589157415503
 21
199.4013886544247
 31
0.0
 11
160.8249331727018
 21
199.3561020688621
 31
0.0
 11
160.8898518812397
 21
199.3090956905352
 31
0.0
 11
160.9536010937603
 21
199.2604077099396
 31
0.0
 11
161.0161111406401
 21
199.210078864891
 31
0.0
 11
161.0773152810448
 21
199.1581544795128
 31
0.0
 11
161.1371482789609
 21
199.1046822135577
 31
0.0
 11
161.1955483699611
 21
199.0497140000666
 31
0.0
 11
161.2524556627888
 21
198.9933038400092
 31
0.0
 11
161.3078142223545
 21
198.9355096127514
 31
0.0
 11
161.3615703118944
 21
198.876390948745
 31
0.0
 11
161.4136745631296
 21
198.8160108908826
 31
0.0
 11
161.4640800791804
 21
198.7544338759182
 31
0.0
 11
161.5127446602951
 21
198.6917272294598
 31
0.0
 11
161.5596287922521
 21
198.6279592836145
 31
0.0
 11
161.6046978946849
 21
198.5632006935278
 31
0.0
 11
161.6479202234187
 21
198.4975227145486
 31
0.0
 11
161.6892691082135
 21
198.4309983336293
 31
0.0
 11
161.7287208001572
 21
198.3637007243318
 31
0.0
 11
161.7662566666149
 21
198.2957041917705
 31
0.0
 11
161.8018610163122
 21
198.2270828182624
 31
0.0
 11
161.8355232213208
 21
198.1579112256054
 31
0.0
 11
161.8672355527507
 21
198.0882634184115
 31
0.0
 11
161.896995202582
 21
198.0182133721255
 31
0.0
 11
161.9248021619715
 21
197.9478340753427
 31
0.0
 11
161.9506611194706
 21
197.8771979559174
 31
0.0
 11
161.9745794119074
 21
197.8063761181721
 31
0.0
 11
161.9965687798058
 21
197.7354386225713
 31
0.0
 11
162.0166434178118
 21
197.6644539088537
 31
0.0
 11
162.0348215726946
 21
197.5934889470482
 31
0.0
 11
162.0511237165254
 21
197.5226088334109
 31
0.0
 11
162.0655739772981
 21
197.4518768319956
 31
0.0
 11
162.0781984537857
 21
197.3813541269293
 31
0.0
 11
162.0890264733411
 21
197.3110997743974
 31
0.0
 11
162.0980890627606
 21
197.2411705923774
 31
0.0
 11
162.1054200320864
 21
197.1716210427113
 31
0.0
 11
162.111054611119
 21
197.1025032380051
 31
0.0
 11
162.115030361868
 21
197.0338667726293
 31
0.0
 11
162.1173859858265
 21
196.9657588258418
 31
0.0
 11
162.118162071007
 21
196.8982239592773
 31
0.0
  0
SPLINE
  5
152
330
1F
100
AcDbEntity
  8
0
  6
Continuous
 62
     2
100
AcDbSpline
210
0.0
220
0.0
230
1.0
 70
     8
 71
     3
 72
    15
 73
    11
 74
     9
 42
0.000000001
 43
0.0000000001
 44
0.00000001
 40
0.0
 40
0.0
 40
0.0
 40
0.0
 40
0.1635353207319293
 40
0.407891824550152
 40
0.731401901507051
 40
1.125067827223816
 40
1.573626366279899
 40
2.057020031068525
 40
2.553519143978944
 40
3.042666282296355
 40
3.042666282296355
 40
3.042666282296355
 40
3.042666282296355
 10
141.3181626084621
 20
199.9274928270108
 30
0.0
 10
141.3181625799991
 20
199.8729810534336
 30
0.0
 10
141.3181625105163
 20
199.7370171119168
 30
0.0
 10
141.3181624374406
 20
199.4932164780812
 30
0.0
 10
141.3181623827286
 20
199.1727056425838
 30
0.0
 10
141.3181623258284
 20
198.7841274620073
 30
0.0
 10
141.318162269963
 20
198.3422547521535
 30
0.0
 10
141.3181622110191
 20
197.866104313235
 30
0.0
 10
141.3181621383112
 20
197.3764243412296
 30
0.0
 10
141.318162098207
 20
197.0478755908203
 30
0.0
 10
141.318162071007
 20
196.8848265447145
 30
0.0
 11
141.3181626084621
 21
199.9274928270108
 31
0.0
 11
141.3181625294001
 21
199.7639575062788
 31
0.0
 11
141.3181624598715
 21
199.5196010024606
 31
0.0
 11
141.3181623979011
 21
199.1960909255037
 31
0.0
 11
141.3181623397346
 21
198.802424999787
 31
0.0
 11
141.3181622816207
 21
198.3538664607309
 31
0.0
 11
141.3181622195975
 21
197.8704727959423
 31
0.0
 11
141.3181621501495
 21
197.3739736830319
 31
0.0
 11
141.318162071007
 21
196.8848265447145
 31
0.0
  0
SPLINE
  5
153
330
1F
100
AcDbEntity
  8
0
  6
Continuous
 62
     2
100
AcDbSpline
210
0.0
220
0.0
230
1.0
 70
     8
 71
     3
 72
    11
 73
     7
 74
     5
 42
0.000000001
 43
0.0000000001
 44
0.00000001
 40
0.0
 40
0.0
 40
0.0
 40
0.0
 40
2.226758408947035
 40
4.453516816670316
 40
4.512578804535946
 40
4.57655498084572
 40
4.57655498084572
 40
4.57655498084572
 40
4.57655498084572
 10
141.318162070997
 20
204.5062376067374
 30
0.0
 10
141.2896263456802
 20
203.7674463896339
 30
0.0
 10
141.2325549297323
 20
202.289863944543
 30
0.0
 10
141.5216964887536
 20
200.7505961140218
 30
0.0
 10
141.3013250467445
 20
199.9940631894426
 30
0.0
 10
141.2795068984674
 20
199.9590805174206
 30
0.0
 10
141.2681621183055
 20
199.9408905676331
 30
0.0
 11
141.318162070997
 21
204.5062376067374
 31
0.0
 11
141.3181620710058
 21
202.2794792006236
 31
0.0
 11
141.318162071007
 21
200.0527207945086
 31
0.0
 11
141.2994172761323
 21
199.9967123037913
 31
0.0
 11
141.2681621183055
 21
199.9408905676331
 31
0.0
  0
SPLINE
  5
154
330
1F
100
AcDbEntity
  8
0
  6
Continuous
 62
     2
100
AcDbSpline
210
0.0
220
0.0
230
1.0
 70
     8
 71
     3
 72
    60
 73
    56
 74
    54
 42
0.000000001
 43
0.0000000001
 44
0.00000001
 40
0.0
 40
0.0
 40
0.0
 40
0.0
 40
0.0022118907436221
 40
0.0046717727025039
 40
0.0073323337229744
 40
0.0101447063296109
 40
0.0130591564907592
 40
0.0160254615111262
 40
0.0189931407678964
 40
0.0219116215256153
 40
0.0247303878566907
 40
0.0269347599194904
 40
0.0290104150353449
 40
0.0309301247112981
 40
0.0326673013239799
 40
0.0341965174765769
 40
0.0354388420171976
 40
0.0364554585498609
 40
0.0372404997017574
 40
0.037780130361158
 40
0.0382222278234256
 40
0.0387333172882452
 40
0.0393952457877439
 40
0.0402997971589623
 40
0.0406370331437347
 40
0.0408539706827886
 40
0.0411457626555961
 40
0.0414394081398512
 40
0.0420313218810837
 40
0.0426322384419761
 40
0.0472922641984719
 40
0.0518772173343256
 40
0.0562539701875699
 40
0.0587959227052764
 40
0.0616333321972897
 40
0.064770299747447
 40
0.0682112134747544
 40
0.0719607422462276
 40
0.0754425151086422
 40
0.0786761956149094
 40
0.0803957268621293
 40
0.0821335240450277
 40
0.0829739130661463
 40
0.0841352898296329
 40
0.0856084238469131
 40
0.0884149191458142
 40
0.091196722274208
 40
0.0945501756317919
 40
0.0979089342050367
 40
0.1023943476623359
 40
0.1069323086963331
 40
0.1115317234170656
 40
0.1167502431664375
 40
0.1220554035009976
 40
0.1274599513773582
 40
0.1274599513773582
 40
0.1274599513773582
 40
0.1274599513773582
 10
141.2681621183055
 20
199.9408905676331
 30
0.0
 10
141.2674548518874
 20
199.9406819076665
 30
0.0
 10
141.2659610239645
 20
199.9402411874047
 30
0.0
 10
141.2635835597998
 20
199.9396707692067
 30
0.0
 10
141.2610002619271
 20
199.9391062903735
 30
0.0
 10
141.2582583682687
 20
199.9385591416534
 30
0.0
 10
141.255410678241
 20
199.938022993208
 30
0.0
 10
141.252508541862
 20
199.9374965767063
 30
0.0
 10
141.249603809959
 20
199.9369770909615
 30
0.0
 10
141.2467482262655
 20
199.9364621240708
 30
0.0
 10
141.2441457145281
 20
199.935977571047
 30
0.0
 10
141.2418237300947
 20
199.9355217035025
 30
0.0
 10
141.2398011718169
 20
199.9350970580316
 30
0.0
 10
141.2379386032188
 20
199.9346694651137
 30
0.0
 10
141.23626442431
 20
199.9342378301827
 30
0.0
 10
141.2348239458724
 20
199.9338066956057
 30
0.0
 10
141.233636356004
 20
199.9333761705642
 30
0.0
 10
141.2327128128533
 20
199.9329485045214
 30
0.0
 10
141.2320592501409
 20
199.9325187786327
 30
0.0
 10
141.2316546863058
 20
199.9320664613747
 30
0.0
 10
141.2315782613144
 20
199.9315372394495
 30
0.0
 10
141.2318839193273
 20
199.9310575190208
 30
0.0
 10
141.2324299504845
 20
199.9306296787807
 30
0.0
 10
141.2329918110201
 20
199.9303276707324
 30
0.0
 10
141.2334339746561
 20
199.9301257690396
 30
0.0
 10
141.2336935181591
 20
199.9300154308108
 30
0.0
 10
141.2339400252567
 20
199.9299116857583
 30
0.0
 10
141.2343023391571
 20
199.9297608564889
 30
0.0
 10
141.2347608846575
 20
199.9295730999976
 30
0.0
 10
141.2365719111735
 20
199.9288475442479
 30
0.0
 10
141.2396574771821
 20
199.9277243926146
 30
0.0
 10
141.2439890857593
 20
199.9263594124052
 30
0.0
 10
141.2476848627415
 20
199.9253346220908
 30
0.0
 10
141.2508378065426
 20
199.9245375012642
 30
0.0
 10
141.2536011569511
 20
199.9238868610635
 30
0.0
 10
141.256667775837
 20
199.9232186505621
 30
0.0
 10
141.2600433714331
 20
199.922542565348
 30
0.0
 10
141.2635430236841
 20
199.9219031966948
 30
0.0
 10
141.2669840685151
 20
199.9213300423888
 30
0.0
 10
141.2697636977637
 20
199.9209063485486
 30
0.0
 10
141.2719715378245
 20
199.9205902186909
 30
0.0
 10
141.2733912544749
 20
199.9203987135843
 30
0.0
 10
141.2746265858453
 20
199.9202319783184
 30
0.0
 10
141.2757776303235
 20
199.9201011279502
 30
0.0
 10
141.2775857430022
 20
199.9199549250497
 30
0.0
 10
141.2799402816479
 20
199.9198841987001
 30
0.0
 10
141.2829209806881
 20
199.9199786836685
 30
0.0
 10
141.2860741936106
 20
199.9202713747606
 30
0.0
 10
141.2897670967254
 20
199.9208242492116
 30
0.0
 10
141.2938133862751
 20
199.9216475307583
 30
0.0
 10
141.2982247762471
 20
199.9227266328128
 30
0.0
 10
141.3028496253717
 20
199.9239559573438
 30
0.0
 10
141.3077216951403
 20
199.9252485773632
 30
0.0
 10
141.3128786088957
 20
199.9265211398011
 30
0.0
 10
141.3163904128645
 20
199.9271669288197
 30
0.0
 10
141.3181626084621
 20
199.9274928270108
 30
0.0
 11
141.2681621183055
 21
199.9408905676331
 31
0.0
 11
141.266035611088
 21
199.9402819071476
 31
0.0
 11
141.2636469609599
 21
199.9396942275411
 31
0.0
 11
141.2610480598295
 21
199.9391247560051
 31
0.0
 11
141.258290799605
 21
199.9385707197314
 31
0.0
 11
141.2554270721948
 21
199.9380293459114
 31
0.0
 11
141.2525087695072
 21
199.9374978617369
 31
0.0
 11
141.2495877834503
 21
199.9369734943992
 31
0.0
 11
141.2467160059325
 21
199.9364534710901
 31
0.0
 11
141.2439453288621
 21
199.9359350190012
 31
0.0
 11
141.2417825969237
 21
199.9355085838082
 31
0.0
 11
141.2397517123103
 21
199.9350798040905
 31
0.0
 11
141.2378813936791
 21
199.9346471452863
 31
0.0
 11
141.2362003596875
 21
199.9342090728341
 31
0.0
 11
141.2347373289926
 21
199.9337640521717
 31
0.0
 11
141.2335724877175
 21
199.9333321781016
 31
0.0
 11
141.2326564555804
 21
199.9328912762491
 31
0.0
 11
141.2320140717609
 21
199.9324400193501
 31
0.0
 11
141.2316850789129
 21
199.9320122751621
 31
0.0
 11
141.2316310861114
 21
199.9315734869602
 31
0.0
 11
141.2318717469757
 21
199.9311226045665
 31
0.0
 11
141.232375212928
 21
199.9306928703527
 31
0.0
 11
141.2331644943269
 21
199.9302510013945
 31
0.0
 11
141.2334711853465
 21
199.9301107561109
 31
0.0
 11
141.2336705815906
 21
199.9300252982968
 31
0.0
 11
141.2339395206735
 21
199.9299120978874
 31
0.0
 11
141.2342106133762
 21
199.9297992421175
 31
0.0
 11
141.234758375894
 21
199.9295749250804
 31
0.0
 11
141.2353161785963
 21
199.9293514146957
 31
0.0
 11
141.239691814271
 21
199.9277484004333
 31
0.0
 11
141.2440629694999
 21
199.9263646374544
 31
0.0
 11
141.248279597307
 21
199.9251915991227
 31
0.0
 11
141.2507438745498
 21
199.9245680112651
 31
0.0
 11
141.2535056050284
 21
199.9239170582458
 31
0.0
 11
141.2565704928075
 21
199.9232484535593
 31
0.0
 11
141.2599442419523
 21
199.9225719107005
 31
0.0
 11
141.2636325565277
 21
199.921897143164
 31
0.0
 11
141.2670669401703
 21
199.9213246389119
 31
0.0
 11
141.2702635788282
 21
199.9208365816623
 31
0.0
 11
141.2719658239835
 21
199.9205933706258
 31
0.0
 11
141.2736877019268
 21
199.9203586840658
 31
0.0
 11
141.2745208666372
 21
199.9202487258956
 31
0.0
 11
141.2756749059554
 21
199.9201183795083
 31
0.0
 11
141.2771432189097
 21
199.9199992901275
 31
0.0
 11
141.279948386612
 21
199.9199129515347
 31
0.0
 11
141.2827288841517
 21
199.919998190144
 31
0.0
 11
141.2860685230481
 21
199.9203022719412
 31
0.0
 11
141.28939120671
 21
199.9207932260891
 31
0.0
 11
141.2937896154421
 21
199.9216723959363
 31
0.0
 11
141.2982011196291
 21
199.9227362217194
 31
0.0
 11
141.3026501873717
 21
199.9239025901916
 31
0.0
 11
141.3076979219173
 21
199.9252267231404
 31
0.0
 11
141.3128573376553
 21
199.9264616971275
 31
0.0
 11
141.3181626084621
 21
199.9274928270108
 31
0.0
  0
SPLINE
  5
155
330
1F
100
AcDbEntity
  8
0
  6
Continuous
 62
     7
100
AcDbSpline
210
0.0
220
0.0
230
1.0
 70
     8
 71
     3
 72
    72
 73
    68
 74
    66
 42
0.000000001
 43
0.0000000001
 44
0.00000001
 40
0.0
 40
0.0
 40
0.0
 40
0.0
 40
0.000534062828008
 40
0.0010681258512852
 40
0.00292993494147
 40
0.0042747284019383
 40
0.0081676676626968
 40
0.011786764016429
 40
0.0148568173567357
 40
0.0171025158942555
 40
0.02595011086783
 40
0.034637082746972
 40
0.0429519604417569
 40
0.0506830070509116
 40
0.0576182993551731
 40
0.0635457798858568
 40
0.0682532925551197
 40
0.0840060831078407
 40
0.099340628352499
 40
0.1140637405946008
 40
0.1279819257792787
 40
0.1409014500218959
 40
0.1526283893818473
 40
0.1734550846750024
 40
0.1938560821967414
 40
0.2137012720224743
 40
0.2328603287455481
 40
0.2512027463966316
 40
0.268597866715514
 40
0.3033247270586479
 40
0.3379016331797581
 40
0.3721912903205307
 40
0.4060560448527705
 40
0.4393579375631435
 40
0.4719587474955439
 40
0.5037200282999933
 40
0.5345031385940389
 40
0.5641692675116081
 40
0.5925794563765233
 40
0.6652729302530666
 40
0.7382664336533474
 40
0.8112996249956439
 40
0.8841112559848244
 40
0.9564393130433021
 40
1.028021132966959
 40
1.138730396209368
 40
1.25061137780885
 40
1.36346734423827
 40
1.47710040927423
 40
1.591311715635966
 40
1.705901593661853
 40
1.820669701890149
 40
1.935415153614679
 40
2.049936632907222
 40
2.164032503192392
 40
2.27959708049734
 40
2.394684044746259
 40
2.509222102525056
 40
2.62314005066828
 40
2.736366884661039
 40
2.848831911283779
 40
2.960464866719271
 40
3.071196041453324
 40
3.180956413443094
 40
3.289677791199435
 40
3.397292968655846
 40
3.503735894403105
 40
3.503735894403105
 40
3.503735894403105
 40
3.503735894403105
 10
163.618162071007
 20
157.9888648856341
 30
0.0
 10
163.6179882496394
 20
157.9889033256444
 30
0.0
 10
163.6176406099514
 20
157.9889802197844
 30
0.0
 10
163.6166862513195
 20
157.989187676636
 30
0.0
 10
163.6154664477776
 20
157.9894462047032
 30
0.0
 10
163.6131491984507
 20
157.9899265737381
 30
0.0
 10
163.6102547694662
 20
157.9905083168558
 30
0.0
 10
163.6067922699812
 20
157.9911817292476
 30
0.0
 10
163.6038661734985
 20
157.9917368689127
 30
0.0
 10
163.5992248868853
 20
157.9926014063151
 30
0.0
 10
163.5927355416997
 20
157.993768863743
 30
0.0
 10
163.5842433159481
 20
157.9952272913936
 30
0.0
 10
163.5761090342103
 20
157.9965699512017
 30
0.0
 10
163.5685442608359
 20
157.9977767999185
 30
0.0
 10
163.5617605825107
 20
157.9988278906595
 30
0.0
 10
163.5559695897677
 20
157.9997032168823
 30
0.0
 10
163.5472686679097
 20
158.0009925612482
 30
0.0
 10
163.5354569525005
 20
158.0026807431926
 30
0.0
 10
163.5203254501969
 20
158.0047345838873
 30
0.0
 10
163.5057881928056
 20
158.0066175293592
 30
0.0
 10
163.4920400060715
 20
158.0083238009134
 30
0.0
 10
163.4792757444617
 20
158.009847840871
 30
0.0
 10
163.4642178161658
 20
158.0115845553904
 30
0.0
 10
163.4466725021168
 20
158.0135193047594
 30
0.0
 10
163.4264247857203
 20
158.0156328471861
 30
0.0
 10
163.4067194170946
 20
158.0175850219218
 30
0.0
 10
163.3876881560177
 20
158.0193789027469
 30
0.0
 10
163.3694627591647
 20
158.0210175926058
 30
0.0
 10
163.3460609406388
 20
158.0230299063037
 30
0.0
 10
163.3172543802562
 20
158.0253505130639
 30
0.0
 10
163.2828170796134
 20
158.0278974914066
 30
0.0
 10
163.248651836363
 20
158.0302180920815
 30
0.0
 10
163.2148985362095
 20
158.0323238931844
 30
0.0
 10
163.1816970540015
 20
158.0342264676736
 30
0.0
 10
163.1491872750728
 20
158.0359374009128
 30
0.0
 10
163.1175090874498
 20
158.0374682828907
 30
0.0
 10
163.0868023848187
 20
158.0388307103028
 30
0.0
 10
163.0572070571752
 20
158.0400362751375
 30
0.0
 10
163.0136475376704
 20
158.0416657896372
 30
0.0
 10
162.9556439989152
 20
158.0435150368347
 30
0.0
 10
162.882759013687
 20
158.0453170792235
 30
0.0
 10
162.8098245727786
 20
158.0466476854245
 30
0.0
 10
162.7371054646902
 20
158.047547022196
 30
0.0
 10
162.6648664353228
 20
158.0480553390982
 30
0.0
 10
162.5799933158145
 20
158.0482422049812
 30
0.0
 10
162.4819358093687
 20
158.047908640903
 30
0.0
 10
162.3701247655359
 20
158.0468586211732
 30
0.0
 10
162.2573464327686
 20
158.0452042583759
 30
0.0
 10
162.1438004089756
 20
158.0430151131696
 30
0.0
 10
162.0296862710488
 20
158.040360693791
 30
0.0
 10
161.9152036178993
 20
158.037310538421
 30
0.0
 10
161.8005520551801
 20
158.0339341886041
 30
0.0
 10
161.6859311962965
 20
158.0303011951796
 30
0.0
 10
161.5715406597816
 20
158.0264811051216
 30
0.0
 10
161.4568817601945
 20
158.0225193642583
 30
0.0
 10
161.3420369762605
 20
158.0184798168235
 30
0.0
 10
161.2270452212233
 20
158.0144256643357
 30
0.0
 10
161.1126001094196
 20
158.0104445999161
 30
0.0
 10
160.9987706268714
 20
158.0066023214725
 30
0.0
 10
160.8856257566753
 20
158.0029644988819
 30
0.0
 10
160.7732344785464
 20
157.9995969263511
 30
0.0
 10
160.6616657679727
 20
157.9965649217231
 30
0.0
 10
160.5509885946674
 20
157.9939355522403
 30
0.0
 10
160.4412719235827
 20
157.9917694272742
 30
0.0
 10
160.3325847057578
 20
157.990150919334
 30
0.0
 10
160.224995905658
 20
157.9890770027874
 30
0.0
 10
160.1536430988571
 20
157.9889353278959
 30
0.0
 10
160.118162071007
 20
157.988864885634
 30
0.0
 11
163.618162071007
 21
157.9888648856341
 31
0.0
 11
163.6176405383239
 21
157.9889798939179
 31
0.0
 11
163.6171186881715
 21
157.9890934529922
 31
0.0
 11
163.6152975246054
 21
157.9894803589766
 31
0.0
 11
163.6139807555172
 21
157.9897534681012
 31
0.0
 11
163.6101644642408
 21
157.99052216626
 31
0.0
 11
163.6066120533852
 21
157.9912137119587
 31
0.0
 11
163.6035958387729
 21
157.9917861426353
 31
0.0
 11
163.6013881362266
 21
157.9921974957275
 31
0.0
 11
163.5926808135926
 21
157.9937667213631
 31
0.0
 11
163.584119478961
 21
157.9952388047651
 31
0.0
 11
163.5759157826327
 21
157.9965940012319
 31
0.0
 11
163.5682813749085
 21
157.9978125660622
 31
0.0
 11
163.561427906089
 21
157.9988747545545
 31
0.0
 11
163.5555670264753
 21
157.9997608220077
 31
0.0
 11
163.550910386368
 21
158.0004510237201
 31
0.0
 11
163.5353163569893
 21
158.0026818660616
 31
0.0
 11
163.5201213995388
 21
158.0047462171986
 31
0.0
 11
163.5055204145898
 21
158.0066386421903
 31
0.0
 11
163.4917083027159
 21
158.0083537060959
 31
0.0
 11
163.4788799644903
 21
158.0098859739745
 31
0.0
 11
163.4672303004865
 21
158.0112300108854
 31
0.0
 11
163.4465292834601
 21
158.0135145525288
 31
0.0
 11
163.4262386815685
 21
158.0156340275625
 31
0.0
 11
163.4064902773324
 21
158.0175915997967
 31
0.0
 11
163.3874158532724
 21
158.0193904330414
 31
0.0
 11
163.3691471919093
 21
158.0210336911068
 31
0.0
 11
163.3518160757637
 21
158.0225245378029
 31
0.0
 11
163.3172016378496
 21
158.025316583022
 31
0.0
 11
163.2827191327175
 21
158.0278698703395
 31
0.0
 11
163.2485084697599
 21
158.0301960531111
 31
0.0
 11
163.2147095583685
 21
158.0323067846927
 31
0.0
 11
163.1814623079356
 21
158.03421371844
 31
0.0
 11
163.1489066278531
 21
158.0359285077087
 31
0.0
 11
163.1171824275132
 21
158.0374628058547
 31
0.0
 11
163.0864296163078
 21
158.0388282662337
 31
0.0
 11
163.056788103629
 21
158.0400365422016
 31
0.0
 11
163.0283977988689
 21
158.041099287114
 31
0.0
 11
162.9557415513448
 21
158.0434254080647
 31
0.0
 11
162.8827705562252
 21
158.0452379777263
 31
0.0
 11
162.809749648509
 21
158.0465774078109
 31
0.0
 11
162.7369436631949
 21
158.0474841100306
 31
0.0
 11
162.6646174352821
 21
158.0479984960974
 31
0.0
 11
162.5930357997694
 21
158.0481609777235
 31
0.0
 11
162.4823271249161
 21
158.0478000364082
 31
0.0
 11
162.3704509432191
 21
158.0467636911486
 31
0.0
 11
162.2576069230359
 21
158.0451216598645
 31
0.0
 11
162.1439947327244
 21
158.0429436604757
 31
0.0
 11
162.0298140406419
 21
158.040299410902
 31
0.0
 11
161.9152645151464
 21
158.0372586290631
 31
0.0
 11
161.8005458245953
 21
158.0338910328789
 31
0.0
 11
161.6858576373463
 21
158.0302663402692
 31
0.0
 11
161.5713996217571
 21
158.0264542691536
 31
0.0
 11
161.4573714461852
 21
158.0225245374521
 31
0.0
 11
161.3418779244111
 21
158.0184726298706
 31
0.0
 11
161.2268620464351
 21
158.0144282322237
 31
0.0
 11
161.1123928504183
 21
158.0104571062543
 31
0.0
 11
160.9985393745218
 21
158.0066250137056
 31
0.0
 11
160.8853706569065
 21
158.0029977163207
 31
0.0
 11
160.7729557357337
 21
157.9996409758429
 31
0.0
 11
160.6613636491643
 21
157.9966205540149
 31
0.0
 11
160.5506634353594
 21
157.9940022125801
 31
0.0
 11
160.4409241324802
 21
157.9918517132815
 31
0.0
 11
160.3322147786877
 21
157.9902348178622
 31
0.0
 11
160.2246044121429
 21
157.9892172880653
 31
0.0
 11
160.118162071007
 21
157.988864885634
 31
0.0
  0
SPLINE
  5
156
330
1F
100
AcDbEntity
  8
0
  6
Continuous
 62
     7
100
AcDbSpline
210
0.0
220
0.0
230
1.0
 70
     8
 71
     3
 72
    27
 73
    23
 74
    21
 42
0.000000001
 43
0.0000000001
 44
0.00000001
 40
0.0
 40
0.0
 40
0.0
 40
0.0
 40
0.2898835720076962
 40
0.5877420162820125
 40
0.8917743817451727
 40
1.200150645256192
 40
1.542188279437189
 40
1.883739793425972
 40
2.217614803757994
 40
2.411454575162881
 40
2.609283220187366
 40
2.674619135876833
 40
2.74703336161973
 40
2.824047380846643
 40
2.903194894208664
 40
2.967395605668407
 40
3.019212216415907
 40
3.059406544198783
 40
3.088726772996047
 40
3.126007441898551
 40
3.149243730337397
 40
3.15929684107191
 40
3.15929684107191
 40
3.15929684107191
 40
3.15929684107191
 10
141.2718838097376
 20
159.4891995411145
 30
0.0
 10
141.1752730817679
 20
159.4910986219988
 30
0.0
 10
140.979393806631
 20
159.4949490428883
 30
0.0
 10
140.6823192282205
 20
159.5056545204117
 30
0.0
 10
140.3791518559819
 20
159.5180533836049
 30
0.0
 10
140.0612888773605
 20
159.5315425015415
 30
0.0
 10
139.7308773606899
 20
159.5442969892201
 30
0.0
 10
139.3918556910509
 20
159.5540634263573
 30
0.0
 10
139.102099540482
 20
159.5576868154595
 30
0.0
 10
138.8602489219517
 20
159.5559214006652
 30
0.0
 10
138.7079519642666
 20
159.5518805374254
 30
0.0
 10
138.5962004400325
 20
159.54693343807
 30
0.0
 10
138.524718248041
 20
159.5430089878054
 30
0.0
 10
138.4487007195273
 20
159.5378190549372
 30
0.0
 10
138.375506229615
 20
159.5315878957319
 30
0.0
 10
138.3108039546313
 20
159.5247968151813
 30
0.0
 10
138.2591298866372
 20
159.518321464218
 30
0.0
 10
138.2191293993469
 20
159.5123894302673
 30
0.0
 10
138.1839916699089
 20
159.5065192279379
 30
0.0
 10
138.1547770016888
 20
159.5002670862232
 30
0.0
 10
138.1316119952405
 20
159.4953212794112
 30
0.0
 10
138.1215387585448
 20
159.4906194478136
 30
0.0
 10
138.1184967256101
 20
159.4891995411145
 30
0.0
 11
141.2718838097376
 21
159.4891995411145
 31
0.0
 11
140.982072607776
 21
159.4956765006109
 31
0.0
 11
140.6843868853859
 21
159.505818659644
 31
0.0
 11
140.3806015200172
 21
159.5180714550245
 31
0.0
 11
140.0724913891197
 21
159.5308803235634
 31
0.0
 11
139.7306957911266
 21
159.5437454846327
 31
0.0
 11
139.3892751348345
 21
159.5531991688633
 31
0.0
 11
139.05542037121
 21
159.5568760295429
 31
0.0
 11
138.8615868752786
 21
159.5553162791428
 31
0.0
 11
138.6638342740918
 21
159.549831618855
 31
0.0
 11
138.5985628954365
 21
159.5469283440033
 31
0.0
 11
138.5262587240574
 21
159.542937493542
 31
0.0
 11
138.4494260244377
 21
159.5376558819142
 31
0.0
 11
138.3705690610603
 21
159.5308803235634
 31
0.0
 11
138.3067242753069
 21
159.5241294215935
 31
0.0
 11
138.2553178305924
 21
159.5176226109228
 31
0.0
 11
138.215559779237
 21
159.5117165688419
 31
0.0
 11
138.1866601735607
 21
159.5067679726414
 31
0.0
 11
138.1501395630902
 21
159.4992784284029
 31
0.0
 11
138.1277007238392
 21
159.4932432327393
 31
0.0
 11
138.1184967256101
 21
159.4891995411145
 31
0.0
  0
SPLINE
  5
157
330
1F
100
AcDbEntity
  8
0
  6
Continuous
 62
     7
100
AcDbSpline
210
0.0
220
0.0
230
1.0
 70
     8
 71
     3
 72
    72
 73
    68
 74
    66
 42
0.000000001
 43
0.0000000001
 44
0.00000001
 40
0.0
 40
0.0
 40
0.0
 40
0.0
 40
0.0005340628272158
 40
0.0010681258511402
 40
0.0024433507484916
 40
0.0042747290393802
 40
0.0081676683029087
 40
0.0117867646587869
 40
0.0148568179986083
 40
0.0171025165313513
 40
0.0259501115082204
 40
0.0346370833903245
 40
0.042951961087184
 40
0.0506830076972458
 40
0.0576183000006429
 40
0.0635457805284484
 40
0.0682532931922164
 40
0.0840060837338317
 40
0.0993406289702452
 40
0.1140637412082088
 40
0.1279819263939267
 40
0.1409014506439745
 40
0.1526283900189444
 40
0.1734550853136155
 40
0.193856082836726
 40
0.2137012726633103
 40
0.2328603293863867
 40
0.2512027470364102
 40
0.2685978673527245
 40
0.3033247276991392
 40
0.3379016338230113
 40
0.3721912909660601
 40
0.4060560454999753
 40
0.4393579382113146
 40
0.4719587481437151
 40
0.5037200289472747
 40
0.5345031392392747
 40
0.5641692681534826
 40
0.5925794570137061
 40
0.6652729309151567
 40
0.7382664343326331
 40
0.8112996256825995
 40
0.8841112566683651
 40
0.9564393137108114
 40
1.028021133604057
 40
1.13873039684604
 40
1.250611378445038
 40
1.363467344873946
 40
1.477100409909508
 40
1.591311716270873
 40
1.70590159429659
 40
1.820669702525085
 40
1.935415154249956
 40
2.049936633543266
 40
2.164032503829576
 40
2.279597081134096
 40
2.394684045382731
 40
2.509222103161356
 40
2.623140051304523
 40
2.736366885297254
 40
2.84883191192008
 40
2.960464867355658
 40
3.071196042089795
 40
3.180956414079736
 40
3.289677791836248
 40
3.397292969292859
 40
3.503735895040288
 40
3.503735895040288
 40
3.503735895040288
 40
3.503735895040288
 10
136.618162071007
 20
157.9888648856341
 30
0.0
 10
136.6183358924346
 20
157.988903325354
 30
0.0
 10
136.6186835322358
 20
157.9889802189471
 30
0.0
 10
136.6194793959769
 20
157.9891532291481
 30
0.0
 10
136.6206989373101
 20
157.9894129690515
 30
0.0
 10
136.6230159327045
 20
157.9898945928511
 30
0.0
 10
136.6260693706208
 20
157.9905083234497
 30
0.0
 10
136.6295318724575
 20
157.9911817278117
 30
0.0
 10
136.6324579684484
 20
157.9917368691533
 30
0.0
 10
136.6370992552058
 20
157.9926014060611
 30
0.0
 10
136.6435886002887
 20
157.9937688638415
 30
0.0
 10
136.652080826079
 20
157.9952272913697
 30
0.0
 10
136.6602151078096
 20
157.9965699512092
 30
0.0
 10
136.6677798811869
 20
157.9977767999185
 30
0.0
 10
136.6745635595108
 20
157.998827890661
 30
0.0
 10
136.6803545522507
 20
157.999703216883
 30
0.0
 10
136.6890554741024
 20
158.0009925612479
 30
0.0
 10
136.7008671895034
 20
158.0026807431912
 30
0.0
 10
136.7159986917992
 20
158.004734583885
 30
0.0
 10
136.7305359491867
 20
158.0066175293565
 30
0.0
 10
136.7442841359224
 20
158.0083238009109
 30
0.0
 10
136.7570483975397
 20
158.0098478408697
 30
0.0
 10
136.7721063258436
 20
158.0115845553897
 30
0.0
 10
136.7896516398986
 20
158.0135193047596
 30
0.0
 10
136.8098993562963
 20
158.0156328471865
 30
0.0
 10
136.8296047249227
 20
158.017585021922
 30
0.0
 10
136.8486359859996
 20
158.0193789027473
 30
0.0
 10
136.8668613828513
 20
158.0210175926059
 30
0.0
 10
136.8902632013771
 20
158.0230299063038
 30
0.0
 10
136.9190697617609
 20
158.0253505130642
 30
0.0
 10
136.9535070624065
 20
158.0278974914071
 30
0.0
 10
136.9876723056591
 20
158.0302180920821
 30
0.0
 10
137.0214256058142
 20
158.032323893185
 30
0.0
 10
137.0546270880231
 20
158.0342264676743
 30
0.0
 10
137.0871368669518
 20
158.0359374009135
 30
0.0
 10
137.1188150545739
 20
158.0374682828911
 30
0.0
 10
137.1495217572029
 20
158.0388307103032
 30
0.0
 10
137.1791170848431
 20
158.0400362751375
 30
0.0
 10
137.2226766043534
 20
158.0416657896377
 30
0.0
 10
137.2806801431211
 20
158.0435150368353
 30
0.0
 10
137.3535651283659
 20
158.0453170792243
 30
0.0
 10
137.4264995692815
 20
158.0466476854253
 30
0.0
 10
137.4992186773659
 20
158.0475470221963
 30
0.0
 10
137.5714577067168
 20
158.0480553390983
 30
0.0
 10
137.6563308262093
 20
158.0482422049812
 30
0.0
 10
137.7543883326448
 20
158.0479086409029
 30
0.0
 10
137.8661993764771
 20
158.0468586211733
 30
0.0
 10
137.9789777092439
 20
158.0452042583759
 30
0.0
 10
138.0925237330364
 20
158.0430151131696
 30
0.0
 10
138.2066378709629
 20
158.0403606937911
 30
0.0
 10
138.3211205241124
 20
158.0373105384211
 30
0.0
 10
138.4357720868317
 20
158.0339341886042
 30
0.0
 10
138.5503929457157
 20
158.0303011951797
 30
0.0
 10
138.6647834822313
 20
158.0264811051217
 30
0.0
 10
138.779442381819
 20
158.0225193642583
 30
0.0
 10
138.8942871657531
 20
158.0184798168235
 30
0.0
 10
139.00927892079
 20
158.0144256643357
 30
0.0
 10
139.1237240325935
 20
158.0104445999163
 30
0.0
 10
139.2375535151417
 20
158.0066023214725
 30
0.0
 10
139.3506983853378
 20
158.002964498882
 30
0.0
 10
139.4630896634667
 20
157.9995969263512
 30
0.0
 10
139.5746583740404
 20
157.9965649217231
 30
0.0
 10
139.6853355473459
 20
157.9939355522404
 30
0.0
 10
139.7950522184308
 20
157.9917694272742
 30
0.0
 10
139.9037394362558
 20
157.990150919334
 30
0.0
 10
140.0113282363558
 20
157.9890770027874
 30
0.0
 10
140.0826810431568
 20
157.9889353278958
 30
0.0
 10
140.118162071007
 20
157.988864885634
 30
0.0
 11
136.618162071007
 21
157.9888648856341
 31
0.0
 11
136.6186836036901
 21
157.9889798939179
 31
0.0
 11
136.6192054538425
 21
157.9890934529922
 31
0.0
 11
136.6205504213584
 21
157.9893803429118
 31
0.0
 11
136.6223433864969
 21
157.9897534681012
 31
0.0
 11
136.6261596777761
 21
157.9905221662605
 31
0.0
 11
136.6297120886338
 21
157.9912137119597
 31
0.0
 11
136.6327283032456
 21
157.9917861426362
 31
0.0
 11
136.6349360057873
 21
157.9921974957275
 31
0.0
 11
136.6436433284246
 21
157.9937667213637
 31
0.0
 11
136.652204663059
 21
157.9952388047661
 31
0.0
 11
136.6604083593894
 21
157.9965940012332
 31
0.0
 11
136.6680427671146
 21
157.9978125660636
 31
0.0
 11
136.6748962359331
 21
157.9988747545559
 31
0.0
 11
136.680757115544
 21
157.9997608220085
 31
0.0
 11
136.6854137556459
 21
158.0004510237201
 31
0.0
 11
136.7010077850136
 21
158.0026818660601
 31
0.0
 11
136.7162027424559
 21
158.004746217196
 31
0.0
 11
136.7308037274008
 21
158.0066386421873
 31
0.0
 11
136.7446158392757
 21
158.0083537060931
 31
0.0
 11
136.7574441775087
 21
158.0098859739728
 31
0.0
 11
136.7690938415274
 21
158.0112300108854
 31
0.0
 11
136.7897948585553
 21
158.013514552529
 31
0.0
 11
136.8100854604483
 21
158.0156340275628
 31
0.0
 11
136.8298338646852
 21
158.0175915997971
 31
0.0
 11
136.8489082887452
 21
158.0193904330418
 31
0.0
 11
136.8671769501073
 21
158.021033691107
 31
0.0
 11
136.8845080662503
 21
158.0225245378029
 31
0.0
 11
136.9191225041677
 21
158.0253165830223
 31
0.0
 11
136.9536050093025
 21
158.0278698703399
 31
0.0
 11
136.9878156722625
 21
158.0301960531117
 31
0.0
 11
137.0216145836555
 21
158.0323067846933
 31
0.0
 11
137.0548618340894
 21
158.0342137184406
 31
0.0
 11
137.0874175141719
 21
158.0359285077093
 31
0.0
 11
137.1191417145109
 21
158.0374628058552
 31
0.0
 11
137.1498945257143
 21
158.0388282662341
 31
0.0
 11
137.1795360383897
 21
158.0400365422018
 31
0.0
 11
137.2079263431451
 21
158.041099287114
 31
0.0
 11
137.2805825906941
 21
158.0434254080654
 31
0.0
 11
137.3535535858308
 21
158.0452379777273
 31
0.0
 11
137.4265744935548
 21
158.0465774078117
 31
0.0
 11
137.4993804788654
 21
158.047484110031
 31
0.0
 11
137.5717067067622
 21
158.0479984960976
 31
0.0
 11
137.6432883422445
 21
158.0481609777235
 31
0.0
 11
137.7539970170974
 21
158.0478000364082
 31
0.0
 11
137.8658731987939
 21
158.0467636911486
 31
0.0
 11
137.9787172189766
 21
158.0451216598645
 31
0.0
 11
138.0923294092877
 21
158.0429436604758
 31
0.0
 11
138.2065101013698
 21
158.0402994109021
 31
0.0
 11
138.3210596268652
 21
158.0372586290632
 31
0.0
 11
138.4357783174164
 21
158.033891032879
 31
0.0
 11
138.5504665046658
 21
158.0302663402692
 31
0.0
 11
138.6649245202558
 21
158.0264542691537
 31
0.0
 11
138.7789526958288
 21
158.0225245374521
 31
0.0
 11
138.8944462176025
 21
158.0184726298706
 31
0.0
 11
139.0094620955782
 21
158.0144282322237
 31
0.0
 11
139.1239312915948
 21
158.0104571062543
 31
0.0
 11
139.2377847674913
 21
158.0066250137057
 31
0.0
 11
139.3509534851065
 21
158.0029977163208
 31
0.0
 11
139.4633684062794
 21
157.9996409758429
 31
0.0
 11
139.5749604928489
 21
157.996620554015
 31
0.0
 11
139.6856607066538
 21
157.9940022125801
 31
0.0
 11
139.7954000095332
 21
157.9918517132815
 31
0.0
 11
139.9041093633259
 21
157.9902348178622
 31
0.0
 11
140.0117197298709
 21
157.9892172880653
 31
0.0
 11
140.118162071007
 21
157.988864885634
 31
0.0
  0
SPLINE
  5
158
330
1F
100
AcDbEntity
  8
0
  6
Continuous
 62
     7
100
AcDbSpline
210
0.0
220
0.0
230
1.0
 70
     8
 71
     3
 72
     9
 73
     5
 74
     3
 42
0.000000001
 43
0.0000000001
 44
0.00000001
 40
0.0
 40
0.0
 40
0.0
 40
0.0
 40
0.0000446011246717
 40
0.0000892024571093
 40
0.0000892024571093
 40
0.0000892024571093
 40
0.0000892024571093
 10
140.1182512734641
 20
157.9888648865114
 30
0.0
 10
140.1182364064225
 20
157.9888648864749
 30
0.0
 10
140.1182066722702
 20
157.9888648862922
 30
0.0
 10
140.1181769381178
 20
157.98886488589
 30
0.0
 10
140.118162071007
 20
157.988864885634
 30
0.0
 11
140.1182512734641
 21
157.9888648865114
 31
0.0
 11
140.1182066723394
 21
157.988864886292
 31
0.0
 11
140.118162071007
 21
157.988864885634
 31
0.0
  0
SPLINE
  5
159
330
1F
100
AcDbEntity
  8
0
  6
Continuous
 62
     7
100
AcDbSpline
210
0.0
220
0.0
230
1.0
 70
     8
 71
     3
 72
     9
 73
     5
 74
     3
 42
0.000000001
 43
0.0000000001
 44
0.00000001
 40
0.0
 40
0.0
 40
0.0
 40
0.0
 40
0.0000446011247854
 40
0.0000892024571946
 40
0.0000892024571946
 40
0.0000892024571946
 40
0.0000892024571946
 10
160.1180728685498
 20
157.9888648865114
 30
0.0
 10
160.1180877355914
 20
157.9888648864748
 30
0.0
 10
160.1181174697438
 20
157.9888648862921
 30
0.0
 10
160.1181472038963
 20
157.9888648858899
 30
0.0
 10
160.118162071007
 20
157.988864885634
 30
0.0
 11
160.1180728685498
 21
157.9888648865114
 31
0.0
 11
160.1181174696746
 21
157.988864886292
 31
0.0
 11
160.118162071007
 21
157.988864885634
 31
0.0
  0
SPLINE
  5
15A
330
1F
100
AcDbEntity
  8
0
  6
Continuous
 62
     7
100
AcDbSpline
210
0.0
220
0.0
230
1.0
 70
     8
 71
     3
 72
    27
 73
    23
 74
    21
 42
0.000000001
 43
0.0000000001
 44
0.00000001
 40
0.0
 40
0.0
 40
0.0
 40
0.0
 40
0.2898835720074683
 40
0.5877420162815299
 40
0.8917743817446332
 40
1.200150645256164
 40
1.542188279434971
 40
1.883739793424011
 40
2.217614803757852
 40
2.411454575169532
 40
2.609283220187224
 40
2.674619135881728
 40
2.747033361625483
 40
2.824047380850373
 40
2.903194894208438
 40
2.960937522216982
 40
3.009731326899145
 40
3.053248524768311
 40
3.088726805494643
 40
3.126007474398986
 40
3.149243762837035
 40
3.159296873570444
 40
3.159296873570444
 40
3.159296873570444
 40
3.159296873570444
 10
158.9644403322764
 20
159.4891995411145
 30
0.0
 10
159.0610510602461
 20
159.4910986219988
 30
0.0
 10
159.2569303353829
 20
159.4949490428885
 30
0.0
 10
159.5540049137925
 20
159.5056545204108
 30
0.0
 10
159.8571722860338
 20
159.5180533836087
 30
0.0
 10
160.1750352646446
 20
159.5315425015264
 30
0.0
 10
160.505446781356
 20
159.5442969892827
 30
0.0
 10
160.8444684508391
 20
159.5540634261267
 30
0.0
 10
161.1342246019005
 20
159.5576868161499
 30
0.0
 10
161.3760752193087
 20
159.5559213992434
 30
0.0
 10
161.528372179859
 20
159.5518805413907
 30
0.0
 10
161.6401236995659
 20
159.5469334335185
 30
0.0
 10
161.7116059047652
 20
159.5430090080998
 30
0.0
 10
161.7876233789117
 20
159.5378189729519
 30
0.0
 10
161.8586729737918
 20
159.5317707889096
 30
0.0
 10
161.9202368341268
 20
159.525363187591
 30
0.0
 10
161.969891770834
 20
159.5192933675286
 30
0.0
 10
162.012045476797
 20
159.5132170501219
 30
0.0
 10
162.0503262680388
 20
159.5069385525728
 30
0.0
 10
162.0815477457047
 20
159.5002686263083
 30
0.0
 10
162.104712102085
 20
159.4953211657208
 30
0.0
 10
162.1147853731042
 20
159.4906194214441
 30
0.0
 10
162.1178274164038
 20
159.4891995411145
 30
0.0
 11
158.9644403322764
 21
159.4891995411145
 31
0.0
 11
159.2542515342379
 21
159.4956765006109
 31
0.0
 11
159.5519372566277
 21
159.505818659644
 31
0.0
 11
159.8557226219963
 21
159.5180714550245
 31
0.0
 11
160.1638327528943
 21
159.5308803235634
 31
0.0
 11
160.5056283508852
 21
159.5437454846326
 31
0.0
 11
160.8470490071775
 21
159.5531991688632
 31
0.0
 11
161.1809037708039
 21
159.5568760295429
 31
0.0
 11
161.3747372667421
 21
159.5553162791427
 31
0.0
 11
161.5724898679221
 21
159.549831618855
 31
0.0
 11
161.6377612465825
 21
159.546928344003
 31
0.0
 11
161.7100654179624
 21
159.5429374935416
 31
0.0
 11
161.78689811758
 21
159.537655881914
 31
0.0
 11
161.8657550809535
 21
159.5308803235634
 31
0.0
 11
161.9231838856905
 21
159.524868379573
 31
0.0
 11
161.9716109029928
 21
159.5188968332526
 31
0.0
 11
162.0146817807232
 21
159.5126802428564
 31
0.0
 11
162.0496639684533
 21
159.5067679726414
 31
0.0
 11
162.0861845789256
 21
159.4992784284025
 31
0.0
 11
162.1086234181758
 21
159.493243232739
 31
0.0
 11
162.1178274164038
 21
159.4891995411145
 31
0.0
  0
SPLINE
  5
15B
330
1F
100
AcDbEntity
  8
0
  6
Continuous
 62
     7
100
AcDbSpline
210
0.0
220
0.0
230
1.0
 70
     8
 71
     3
 72
    15
 73
    11
 74
     9
 42
0.000000001
 43
0.0000000001
 44
0.00000001
 40
0.0
 40
0.0
 40
0.0
 40
0.0
 40
1.972583165846354
 40
3.773481519009211
 40
5.02255761628271
 40
6.213066778632883
 40
7.257446283086072
 40
8.278382855274627
 40
8.74727425889282
 40
9.21494797450926
 40
9.21494797450926
 40
9.21494797450926
 40
9.21494797450926
 10
158.918162071007
 20
204.5062376067391
 30
0.0
 10
158.3257224175501
 20
204.7919301560648
 30
0.0
 10
157.1924064013934
 20
205.3384498408397
 30
0.0
 10
155.6290464866445
 20
205.9431571595567
 30
0.0
 10
154.2793726197539
 20
206.3655376422492
 30
0.0
 10
153.1496621852304
 20
206.6387624773949
 30
0.0
 10
152.0792270238328
 20
206.8223360419391
 30
0.0
 10
151.2380644529901
 20
206.907230648836
 30
0.0
 10
150.5862659366109
 20
206.9405745364486
 30
0.0
 10
150.2740613872772
 20
206.9435632044976
 30
0.0
 10
150.118162071007
 20
206.9450555884398
 30
0.0
 11
158.918162071007
 21
204.5062376067391
 31
0.0
 11
157.1295717294889
 21
205.3381203672362
 31
0.0
 11
155.4498222174752
 21
205.9874865610273
 31
0.0
 11
154.2569092870401
 21
206.3578240260438
 31
0.0
 11
153.0994146502356
 21
206.636244990206
 31
0.0
 11
152.0698570837153
 21
206.8115725947696
 31
0.0
 11
151.0540922340759
 21
206.9142042584879
 31
0.0
 11
150.58577223236
 21
206.9373456826227
 31
0.0
 11
150.118162071007
 21
206.9450555884398
 31
0.0
  0
SPLINE
  5
15C
330
1F
100
AcDbEntity
  8
0
  6
Continuous
 62
     7
100
AcDbSpline
210
0.0
220
0.0
230
1.0
 70
     8
 71
     3
 72
    25
 73
    21
 74
    19
 42
0.000000001
 43
0.0000000001
 44
0.00000001
 40
0.0
 40
0.0
 40
0.0
 40
0.0
 40
0.166351363797746
 40
0.3183445226534686
 40
0.4204964199376487
 40
0.5420946773260508
 40
0.6837228693320019
 40
0.8357003758649659
 40
1.054202383740142
 40
1.331487960708294
 40
1.579522082223472
 40
1.843312467049877
 40
2.09934504690486
 40
2.401080070214794
 40
2.701754348437677
 40
3.055499731502973
 40
3.51541160903655
 40
3.914411972970023
 40
4.275051080799537
 40
4.594634874053156
 40
4.594634874053156
 40
4.594634874053156
 40
4.594634874053156
 10
138.118162071007
 20
201.4152749647809
 30
0.0
 10
138.1219406800801
 20
201.4707565631205
 30
0.0
 10
138.1291717648486
 20
201.5769310016924
 30
0.0
 10
138.1687080661436
 20
201.7122404740189
 30
0.0
 10
138.2126213580362
 20
201.8295016367244
 30
0.0
 10
138.2631823519321
 20
201.9404446755004
 30
0.0
 10
138.3284282122823
 20
202.0625873408842
 30
0.0
 10
138.417646503686
 20
202.2082250979378
 30
0.0
 10
138.5416925230101
 20
202.3851523129957
 30
0.0
 10
138.6973483532545
 20
202.5783893691946
 30
0.0
 10
138.8737626100654
 20
202.7736273912109
 30
0.0
 10
139.0541982812982
 20
202.9552893362511
 30
0.0
 10
139.2551595550836
 20
203.141422156005
 30
0.0
 10
139.4727480071992
 20
203.3273864153211
 30
0.0
 10
139.7228860810846
 20
203.5250143496256
 30
0.0
 10
140.0230091239584
 20
203.7440253101057
 30
0.0
 10
140.3596829480418
 20
203.9680283388461
 30
0.0
 10
140.7075214884702
 20
204.1785709540758
 30
0.0
 10
141.0213875028592
 20
204.3545538445213
 30
0.0
 10
141.2232993919158
 20
204.4577525609573
 30
0.0
 10
141.318162070997
 20
204.5062376067374
 30
0.0
 11
138.118162071007
 21
201.4152749647809
 31
0.0
 11
138.1356965290843
 21
201.5806996373513
 31
0.0
 11
138.1754711498255
 21
201.7273962578634
 31
0.0
 11
138.211351793297
 21
201.8230392888261
 31
0.0
 11
138.2614645281262
 21
201.9338312104001
 31
0.0
 11
138.3279685187216
 21
202.0588742586116
 31
0.0
 11
138.4071341031084
 21
202.1886046431141
 31
0.0
 11
138.5321464413163
 21
202.3678113467585
 31
0.0
 11
138.7055620787065
 21
202.5841774896358
 31
0.0
 11
138.8716134084983
 21
202.7684269977569
 31
0.0
 11
139.0573095648331
 21
202.9557830881138
 31
0.0
 11
139.2450214724285
 21
203.1299006393721
 31
0.0
 11
139.47424700455
 21
203.3261139918232
 31
0.0
 11
139.7100689679235
 21
203.5126428720454
 31
0.0
 11
139.995692241586
 21
203.7213415581543
 31
0.0
 11
140.3784620168478
 21
203.9763047600657
 31
0.0
 11
140.7196380051724
 21
204.1831869381939
 31
0.0
 11
141.0344758439585
 21
204.3590781033223
 31
0.0
 11
141.318162070997
 21
204.5062376067374
 31
0.0
  0
SPLINE
  5
15D
330
1F
100
AcDbEntity
  8
0
  6
Continuous
 62
     7
100
AcDbSpline
210
0.0
220
0.0
230
1.0
 70
     8
 71
     3
 72
    15
 73
    11
 74
     9
 42
0.000000001
 43
0.0000000001
 44
0.00000001
 40
0.0
 40
0.0
 40
0.0
 40
0.0
 40
0.466470330246004
 40
0.9341492059508778
 40
1.954584579765617
 40
2.998409472897899
 40
4.192566111523155
 40
5.445657788669569
 40
7.244646121345669
 40
9.214947507208247
 40
9.214947507208247
 40
9.214947507208247
 40
9.214947507208247
 10
150.118162071007
 20
206.9450555884398
 30
0.0
 10
149.9626639402315
 20
206.9435708678799
 30
0.0
 10
149.6512648096529
 20
206.9405975656759
 30
0.0
 10
149.0004341215874
 20
206.9073891420647
 30
0.0
 10
148.1600092480597
 20
206.8227227568051
 30
0.0
 10
147.0886853125661
 20
206.6392226707223
 30
0.0
 10
145.9566392629594
 20
206.3655382851587
 30
0.0
 10
144.6051788347077
 20
205.9424251576477
 30
0.0
 10
143.041958720071
 20
205.3375399914578
 30
0.0
 10
141.9099113530003
 20
204.7916092013111
 30
0.0
 10
141.318162070997
 20
204.5062376067374
 30
0.0
 11
150.118162071007
 21
206.9450555884398
 31
0.0
 11
149.6517548060739
 21
206.9373852831109
 31
0.0
 11
149.1846429398138
 21
206.91436276571
 31
0.0
 11
148.1693582024785
 21
206.8119652169208
 31
0.0
 11
147.1403119129519
 21
206.636939093402
 31
0.0
 11
145.979244067948
 21
206.3577768847132
 31
0.0
 11
144.7825352864322
 21
205.9861226846928
 31
0.0
 11
143.1046529721477
 21
205.3372236487644
 31
0.0
 11
141.318162070997
 21
204.5062376067374
 31
0.0
  0
SPLINE
  5
15E
330
1F
100
AcDbEntity
  8
0
  6
Continuous
 62
     7
100
AcDbSpline
210
0.0
220
0.0
230
1.0
 70
     8
 71
     3
 72
    25
 73
    21
 74
    19
 42
0.000000001
 43
0.0000000001
 44
0.00000001
 40
0.0
 40
0.0
 40
0.0
 40
0.0
 40
0.3406523834920404
 40
0.6827143433261704
 40
1.153770549693046
 40
1.543117857942888
 40
1.896680863863679
 40
2.197169847465483
 40
2.462336798906251
 40
2.754848503447837
 40
2.997883294044899
 40
3.265863624067352
 40
3.501525044721548
 40
3.763405333689336
 40
4.038700380596638
 40
4.278180831449721
 40
4.368530935776623
 40
4.453158719432585
 40
4.522387234579429
 40
4.594664660359578
 40
4.594664660359578
 40
4.594664660359578
 40
4.594664660359578
 10
158.918162071007
 20
204.5062376067391
 30
0.0
 10
159.0192551144619
 20
204.4545066627114
 30
0.0
 10
159.2218595136318
 20
204.3508307225907
 30
0.0
 10
159.5571942029651
 20
204.1623435563176
 30
0.0
 10
159.8994736678488
 20
203.9535224206683
 30
0.0
 10
160.2355329944013
 20
203.7279114732721
 30
0.0
 10
160.5164642708137
 20
203.5227165657204
 30
0.0
 10
160.7568570428573
 20
203.3326132855843
 30
0.0
 10
160.9746974543833
 20
203.147125386618
 30
0.0
 10
161.1710127234205
 20
202.9661631463841
 30
0.0
 10
161.3600116539631
 20
202.7762773634852
 30
0.0
 10
161.5272582839411
 20
202.591785200671
 30
0.0
 10
161.6881599074462
 20
202.3935751336471
 30
0.0
 10
161.837396261035
 20
202.1832867384107
 30
0.0
 10
161.9680042449439
 20
201.959233881211
 30
0.0
 10
162.048135644113
 20
201.7733182518859
 30
0.0
 10
162.0878899806832
 20
201.6408820171955
 30
0.0
 10
162.105256634183
 20
201.5612910539598
 30
0.0
 10
162.1160229344346
 20
201.4865568345386
 30
0.0
 10
162.1174388563499
 20
201.4393744531753
 30
0.0
 10
162.118162071007
 20
201.4152749626141
 30
0.0
 11
158.918162071007
 21
204.5062376067391
 31
0.0
 11
159.2204008438951
 21
204.3490887469314
 31
0.0
 11
159.5188404085301
 21
204.1819354905897
 31
0.0
 11
159.9207150541914
 21
203.9361902587074
 31
0.0
 11
160.2438920891
 21
203.7190545163714
 31
0.0
 11
160.5292772752568
 21
203.5103391727092
 31
0.0
 11
160.7648692881876
 21
203.3238183087481
 31
0.0
 11
160.966663241601
 21
203.1517929836407
 31
0.0
 11
161.1815513568739
 21
202.9533334281514
 31
0.0
 11
161.3528468683437
 21
202.7809276360522
 31
0.0
 11
161.5325292374869
 21
202.5821118835829
 31
0.0
 11
161.6807421932276
 21
202.3988928210829
 31
0.0
 11
161.8316223904633
 21
202.184845042055
 31
0.0
 11
161.9687643944408
 21
201.9461413902585
 31
0.0
 11
162.0615366201728
 21
201.7253605030022
 31
0.0
 11
162.0872816765285
 21
201.6387560381104
 31
0.0
 11
162.1052576345717
 21
201.556059444929
 31
0.0
 11
162.1146041751594
 21
201.4874647753935
 31
0.0
 11
162.118162071007
 21
201.4152749626141
 31
0.0
  0
SPLINE
  5
15F
330
1F
100
AcDbEntity
  8
0
  6
Continuous
 62
     2
100
AcDbSpline
210
0.0
220
0.0
230
1.0
 70
     8
 71
     3
 72
    15
 73
    11
 74
     9
 42
0.000000001
 43
0.0000000001
 44
0.00000001
 40
0.0
 40
0.0
 40
0.0
 40
0.0
 40
0.4891471367944576
 40
0.9856462482693474
 40
1.469039911748467
 40
1.917598449652303
 40
2.311264374394852
 40
2.634774450560372
 40
2.879130953760183
 40
3.042666274024499
 40
3.042666274024499
 40
3.042666274024499
 40
3.042666274024499
 10
158.918162071007
 20
196.8848265504048
 30
0.0
 10
158.9181620748203
 20
197.0478755960029
 30
0.0
 10
158.9181620802021
 20
197.3764243454261
 30
0.0
 10
158.9181620839106
 20
197.8661043160089
 30
0.0
 10
158.9181620897637
 20
198.3422547536283
 30
0.0
 10
158.9181620985139
 20
198.7841274623366
 30
0.0
 10
158.9181621052578
 20
199.1727056419407
 30
0.0
 10
158.918162119511
 20
199.4932164766433
 30
0.0
 10
158.9181621330904
 20
199.7370171098532
 30
0.0
 10
158.9181621423655
 20
199.8729810510078
 30
0.0
 10
158.9181621463559
 20
199.9274928244293
 30
0.0
 11
158.918162071007
 21
196.8848265504048
 31
0.0
 11
158.9181620821024
 21
197.3739736871993
 31
0.0
 11
158.9181620918387
 21
197.8704727986743
 31
0.0
 11
158.9181621005341
 21
198.3538664621534
 31
0.0
 11
158.9181621086814
 21
198.8024250000573
 31
0.0
 11
158.9181621168361
 21
199.1960909247999
 31
0.0
 11
158.9181621255241
 21
199.5196010009653
 31
0.0
 11
158.9181621352717
 21
199.763957504165
 31
0.0
 11
158.9181621463559
 21
199.9274928244293
 31
0.0
  0
SPLINE
  5
160
330
1F
100
AcDbEntity
  8
0
  6
Continuous
 62
     2
100
AcDbSpline
210
0.0
220
0.0
230
1.0
 70
     8
 71
     3
 72
    11
 73
     7
 74
     5
 42
0.000000001
 43
0.0000000001
 44
0.00000001
 40
0.0
 40
0.0
 40
0.0
 40
0.0
 40
0.063976255497598
 40
0.1230383250601349
 40
2.349796731866105
 40
4.576555139897136
 40
4.576555139897136
 40
4.576555139897136
 40
4.576555139897136
 10
158.9681619159246
 20
199.9408903413039
 30
0.0
 10
158.956817160075
 20
199.9590803364883
 30
0.0
 10
158.9349990570313
 20
199.9940630982598
 30
0.0
 10
158.7146283897292
 20
200.7505962685471
 30
0.0
 10
159.0037689003192
 20
202.2898638693894
 30
0.0
 10
158.9466976923396
 20
203.7674463645839
 30
0.0
 10
158.918162071007
 20
204.5062376067391
 30
0.0
 11
158.9681619159246
 21
199.9408903413039
 31
0.0
 11
158.9369068255171
 21
199.9967122059663
 31
0.0
 11
158.918162071007
 21
200.0527207963436
 31
0.0
 11
158.918162071007
 21
202.2794792015413
 31
0.0
 11
158.918162071007
 21
204.5062376067391
 31
0.0
  0
SPLINE
  5
161
330
1F
100
AcDbEntity
  8
0
  6
Continuous
 62
     2
100
AcDbSpline
210
0.0
220
0.0
230
1.0
 70
     8
 71
     3
 72
    46
 73
    42
 74
    40
 42
0.000000001
 43
0.0000000001
 44
0.00000001
 40
0.0
 40
0.0
 40
0.0
 40
0.0
 40
0.0043772184295982
 40
0.0085892706937787
 40
0.0126766534898269
 40
0.0166685806778815
 40
0.0189467095122449
 40
0.0212390225185639
 40
0.0226110646690487
 40
0.0240101190362615
 40
0.0253088093502117
 40
0.0266477339961295
 40
0.0275835775943334
 40
0.0293008566167091
 40
0.0314618378997419
 40
0.0338466645576524
 40
0.0362137491803968
 40
0.0413908704927952
 40
0.0476719591365966
 40
0.0547856446081348
 40
0.0624650221887617
 40
0.0704498340953343
 40
0.0739657639431064
 40
0.0776271113226618
 40
0.0784784179682059
 40
0.0793213840123524
 40
0.0801420524221534
 40
0.0809294424569629
 40
0.0822220432805901
 40
0.0831987090058548
 40
0.0842511384695246
 40
0.085074501330048
 40
0.0864086725413851
 40
0.0883584057626683
 40
0.0915640316064984
 40
0.09543581710669
 40
0.0997370549234197
 40
0.1047232923033409
 40
0.1095975923388568
 40
0.11402438385837
 40
0.1176835189150115
 40
0.1176835189150115
 40
0.1176835189150115
 40
0.1176835189150115
 10
158.9181621463559
 20
199.9274928244293
 30
0.0
 10
158.9195187717828
 20
199.9269527489128
 30
0.0
 10
158.9221808385057
 20
199.9258929899603
 30
0.0
 10
158.9259193120925
 20
199.9239128726463
 30
0.0
 10
158.9295219556154
 20
199.9219653025059
 30
0.0
 10
158.9326342271756
 20
199.9204600072132
 30
0.0
 10
158.9353090206502
 20
199.9194563801341
 30
0.0
 10
158.9372207096921
 20
199.9189247123072
 30
0.0
 10
158.9388799779089
 20
199.9186098817178
 30
0.0
 10
158.9402278192402
 20
199.9184461910636
 30
0.0
 10
158.9415722517726
 20
199.9183743055749
 30
0.0
 10
158.9427644443657
 20
199.9183851552128
 30
0.0
 10
158.9440919380212
 20
199.9184800389631
 30
0.0
 10
158.9456923819037
 20
199.9185957377484
 30
0.0
 10
158.9477734895953
 20
199.9187621545855
 30
0.0
 10
158.9500692474044
 20
199.9189604446935
 30
0.0
 10
158.9533644306627
 20
199.9192701602497
 30
0.0
 10
158.9579474315744
 20
199.9197557974329
 30
0.0
 10
158.9640901901203
 20
199.9205281761974
 30
0.0
 10
158.9710371935097
 20
199.9215763626088
 30
0.0
 10
158.978507738497
 20
199.9229401065322
 30
0.0
 10
158.984750497609
 20
199.9243306121811
 30
0.0
 10
158.9896419776288
 20
199.9256036249966
 30
0.0
 10
158.9922143906601
 20
199.9263429630724
 30
0.0
 10
158.9939210915361
 20
199.9268667623433
 30
0.0
 10
158.9947203910912
 20
199.9271191839066
 30
0.0
 10
158.9954990138262
 20
199.9273679789705
 30
0.0
 10
158.9964117848462
 20
199.9276823086205
 30
0.0
 10
158.9973621744567
 20
199.9280780382638
 30
0.0
 10
158.9983005916633
 20
199.9286198066611
 30
0.0
 10
158.9990781004633
 20
199.9293448273469
 30
0.0
 10
158.9988353291754
 20
199.9305229855224
 30
0.0
 10
158.9976649995258
 20
199.9313473245518
 30
0.0
 10
158.9957594253049
 20
199.9323244608839
 30
0.0
 10
158.9929069173188
 20
199.9333404710467
 30
0.0
 10
158.9892825073267
 20
199.9344392716526
 30
0.0
 10
158.9850494720029
 20
199.9355972187056
 30
0.0
 10
158.9804863562434
 20
199.9368058152622
 30
0.0
 10
158.9759021094524
 20
199.9380908396261
 30
0.0
 10
158.9717594552106
 20
199.9393387826088
 30
0.0
 10
158.9692827183383
 20
199.9404069606501
 30
0.0
 10
158.9681619159246
 20
199.9408903413039
 30
0.0
 11
158.9181621463559
 21
199.9274928244293
 31
0.0
 11
158.9221985210387
 21
199.9257993905538
 31
0.0
 11
158.9259522128135
 21
199.9238885835216
 31
0.0
 11
158.9295651968516
 21
199.9219772892339
 31
0.0
 11
158.9331794483204
 21
199.9202823935942
 31
0.0
 11
158.9353151571879
 21
199.9194895382918
 31
0.0
 11
158.937525359231
 21
199.9188815030747
 31
0.0
 11
158.9388734901312
 21
199.9186264676453
 31
0.0
 11
158.9402624137633
 21
199.9184584064328
 31
0.0
 11
158.9415592127439
 21
199.9183883411694
 31
0.0
 11
158.9428980603571
 21
199.9184027081156
 31
0.0
 11
158.9438320526751
 21
199.9184615435707
 31
0.0
 11
158.9455447434123
 21
199.9185869942332
 31
0.0
 11
158.9476989188923
 21
199.9187583678119
 31
0.0
 11
158.9500748687269
 21
199.9189639465602
 31
0.0
 11
158.9524315705434
 21
199.9191854187079
 31
0.0
 11
158.9575797486844
 21
199.9197321243548
 31
0.0
 11
158.9638115432246
 21
199.9205175467948
 31
0.0
 11
158.9708450058448
 21
199.9215828886719
 31
0.0
 11
158.9783981882255
 21
199.9229693526299
 31
0.0
 11
158.9861891420475
 21
199.9247181413128
 31
0.0
 11
158.9895912750943
 21
199.9256054144839
 31
0.0
 11
158.9931096115108
 21
199.9266187129312
 31
0.0
 11
158.9939233940194
 21
199.9268686750217
 31
0.0
 11
158.9947274245034
 21
199.9271219076138
 31
0.0
 11
158.9955083409465
 21
199.9273742291556
 31
0.0
 11
158.9962516980662
 21
199.9276338505649
 31
0.0
 11
158.9974394964264
 21
199.9281437054851
 31
0.0
 11
158.9982745264226
 21
199.9286502634514
 31
0.0
 11
158.9989349417436
 21
199.9294696899708
 31
0.0
 11
158.9988082036326
 21
199.9302832404362
 31
0.0
 11
158.9978356943003
 21
199.9311966073194
 31
0.0
 11
158.9961117298965
 21
199.932107325176
 31
0.0
 11
158.9931137478366
 21
199.9332422884788
 31
0.0
 11
158.9894135317293
 21
199.934382080109
 31
0.0
 11
158.9852687623341
 21
199.9355316604089
 31
0.0
 11
158.9804537084597
 21
199.9368269678484
 31
0.0
 11
158.9757616406048
 21
199.9381473092437
 31
0.0
 11
158.9715464220121
 21
199.9394994964453
 31
0.0
 11
158.9681619159246
 21
199.9408903413039
 31
0.0
  0
SPLINE
  5
162
330
1F
100
AcDbEntity
  8
0
  6
Continuous
 62
     7
100
AcDbSpline
210
0.0
220
0.0
230
1.0
 70
     8
 71
     3
 72
    11
 73
     7
 74
     5
 42
0.000000001
 43
0.0000000001
 44
0.00000001
 40
0.0
 40
0.0
 40
0.0
 40
0.0
 40
0.070224460426387
 40
0.1403348226107388
 40
0.2314686852685688
 40
0.3200531455651114
 40
0.3200531455651114
 40
0.3200531455651114
 40
0.3200531455651114
 10
56.16910247501033
 20
199.4468413214291
 30
0.0
 10
56.18818010576629
 20
199.4604074841104
 30
0.0
 10
56.22630437913603
 20
199.4875177555039
 30
0.0
 10
56.29045385429853
 20
199.5304021332413
 30
0.0
 10
56.36071218913236
 20
199.5751406305261
 30
0.0
 10
56.41241174534439
 20
199.6054132132565
 30
0.0
 10
56.43789483413508
 20
199.62033478159
 30
0.0
 11
56.16910247501033
 21
199.4468413214291
 31
0.0
 11
56.22652774939842
 21
199.4872617707553
 31
0.0
 11
56.28475190329635
 21
199.526318278818
 31
0.0
 11
56.36172693501144
 21
199.5751058332651
 31
0.0
 11
56.43789483413508
 21
199.62033478159
 31
0.0
  0
SPLINE
  5
163
330
1F
100
AcDbEntity
  8
0
  6
Continuous
 62
     2
100
AcDbSpline
210
0.0
220
0.0
230
1.0
 70
     8
 71
     3
 72
    97
 73
    93
 74
    91
 42
0.000000001
 43
0.0000000001
 44
0.00000001
 40
0.0
 40
0.0
 40
0.0
 40
0.0
 40
0.0004995540534233
 40
0.000999108980406
 40
0.0021935060103793
 40
0.0038302701110196
 40
0.0073578393693613
 40
0.0103665375690156
 40
0.0126830700313508
 40
0.0141321068207383
 40
0.0243332132158333
 40
0.0337023398367859
 40
0.0422485861666285
 40
0.0499503652701233
 40
0.0638924507761883
 40
0.0783974135604126
 40
0.0936660425554741
 40
0.109870088009794
 40
0.1120519756752822
 40
0.1137471933639323
 40
0.114843174072083
 40
0.1173895287977339
 40
0.1199660459543045
 40
0.1252091210885125
 40
0.1305725028210385
 40
0.1416583389461705
 40
0.153222620140561
 40
0.1693829085706984
 40
0.1863853606337794
 40
0.2042264784292946
 40
0.22794625262783
 40
0.2529601907602972
 40
0.2792567396470307
 40
0.3068243461074152
 40
0.3356514569601982
 40
0.3657265190237295
 40
0.3970379791160287
 40
0.4295742840549666
 40
0.4633238806582275
 40
0.4982752157433815
 40
0.5344167361279137
 40
0.5717368886293086
 40
0.6102241200649375
 40
0.6498668772521272
 40
0.6906536070081768
 40
0.7325727561504218
 40
0.7756127714961043
 40
0.819762099862444
 40
0.8650091880666984
 40
0.8933351039517745
 40
0.9211826966097573
 40
0.9487980773280866
 40
0.9764273573941153
 40
1.004316648095205
 40
1.032712060718672
 40
1.061859706551913
 40
1.092005696882175
 40
1.121883017512666
 40
1.152080940861301
 40
1.159680513376225
 40
1.167299766321411
 40
1.174939057322481
 40
1.182597883535001
 40
1.197990466680792
 40
1.213484453184519
 40
1.255230985165955
 40
1.297756680346562
 40
1.341057627907595
 40
1.399652183317868
 40
1.459445473440999
 40
1.520402606735737
 40
1.582488421168321
 40
1.645667528952345
 40
1.709904356119294
 40
1.775163177762752
 40
1.841408149656917
 40
1.908603336835661
 40
1.989827442416976
 40
2.072271611899385
 40
2.155838392412518
 40
2.240430352008568
 40
2.325950127254127
 40
2.41230046876949
 40
2.499384285616227
 40
2.587104689338024
 40
2.675365038396197
 40
2.764068983703831
 40
2.853120515948109
 40
2.942424015396809
 40
3.031884304913879
 40
3.12140670698282
 40
3.210897109158539
 40
3.210897109158539
 40
3.210897109158539
 40
3.210897109158539
 10
54.85644837386548
 20
196.8848265504048
 30
0.0
 10
54.8565612281166
 20
196.8849489944758
 30
0.0
 10
54.85678692620192
 20
196.8851938926501
 30
0.0
 10
54.85728828021215
 20
196.8857261215272
 30
0.0
 10
54.85805791679388
 20
196.8865263475834
 30
0.0
 10
54.85954865612379
 20
196.8880332010041
 30
0.0
 10
54.86151051001857
 20
196.8899242110601
 30
0.0
 10
54.86369150751122
 20
196.8919123963256
 30
0.0
 10
54.86539334883348
 20
196.8933968198871
 30
0.0
 10
54.86895309743019
 20
196.89639718755
 30
0.0
 10
54.87453127753962
 20
196.9006537756732
 30
0.0
 10
54.8824447541249
 20
196.9056934602058
 30
0.0
 10
54.88998696930329
 20
196.9097141322773
 30
0.0
 10
54.89917707382762
 20
196.9138293683377
 30
0.0
 10
54.91058863330261
 20
196.9177772561305
 30
0.0
 10
54.92479931827256
 20
196.9211017306407
 30
0.0
 10
54.93999683481638
 20
196.923217535653
 30
0.0
 10
54.95120655436693
 20
196.9238819742007
 30
0.0
 10
54.95789852266542
 20
196.9240310793386
 30
0.0
 10
54.95955605855244
 20
196.9240557506867
 30
0.0
 10
54.96133517356913
 20
196.9240715225149
 30
0.0
 10
54.96340805515132
 20
196.9240884557871
 30
0.0
 10
54.96686324831029
 20
196.9241175611047
 30
0.0
 10
54.97125741964797
 20
196.9241542669005
 30
0.0
 10
54.97848793025528
 20
196.9242148421365
 30
0.0
 10
54.98782543614271
 20
196.9242930030861
 30
0.0
 10
55.00076178461775
 20
196.9244013175601
 30
0.0
 10
55.01567026937272
 20
196.924526132797
 30
0.0
 10
55.0326709596382
 20
196.9246684684355
 30
0.0
 10
55.05219139015603
 20
196.9248319033383
 30
0.0
 10
55.07438222238476
 20
196.9250177023191
 30
0.0
 10
55.09939143282721
 20
196.9252271024688
 30
0.0
 10
55.12568320903372
 20
196.9254472453843
 30
0.0
 10
55.15324599823327
 20
196.925678033797
 30
0.0
 10
55.1820682476513
 20
196.9259193707708
 30
0.0
 10
55.21213840451369
 20
196.9261711592742
 30
0.0
 10
55.24344491604579
 20
196.9264333023019
 30
0.0
 10
55.2759762294727
 20
196.9267057028406
 30
0.0
 10
55.30972079201952
 20
196.926988263879
 30
0.0
 10
55.34466705091107
 20
196.9272808884049
 30
0.0
 10
55.38080345337224
 20
196.9275834794063
 30
0.0
 10
55.41811844662774
 20
196.9278959398707
 30
0.0
 10
55.45660047790228
 20
196.9282181727858
 30
0.0
 10
55.49623799442053
 20
196.9285500811388
 30
0.0
 10
55.5370194434071
 20
196.9288915679185
 30
0.0
 10
55.57893327208665
 20
196.9292425361052
 30
0.0
 10
55.6219679276835
 20
196.9296028887154
 30
0.0
 10
55.66611185742319
 20
196.9299725286213
 30
0.0
 10
55.70535125928976
 20
196.9303010994657
 30
0.0
 10
55.73915693975878
 20
196.9305841693062
 30
0.0
 10
55.76708559044437
 20
196.9308180262435
 30
0.0
 10
55.79478203734163
 20
196.931049937512
 30
0.0
 10
55.82249238310848
 20
196.9312819640744
 30
0.0
 10
55.85046273040088
 20
196.9315161671076
 30
0.0
 10
55.87893918187901
 20
196.9317546073035
 30
0.0
 10
55.908167840188
 20
196.9319993471346
 30
0.0
 10
55.93789045054954
 20
196.9322482190865
 30
0.0
 10
55.96796314100088
 20
196.932500039448
 30
0.0
 10
55.99052062269972
 20
196.9326888845438
 30
0.0
 10
56.00565900787874
 20
196.9328156914247
 30
0.0
 10
56.01327811381978
 20
196.9328793836014
 30
0.0
 10
56.02091696607012
 20
196.9329437462204
 30
0.0
 10
56.03114683621392
 20
196.933029959359
 30
0.0
 10
56.04399496410461
 20
196.9331240583381
 30
0.0
 10
56.06820564034152
 20
196.933257424355
 30
0.0
 10
56.10146105847512
 20
196.933338830578
 30
0.0
 10
56.14398549735817
 20
196.9332689165597
 30
0.0
 10
56.19212530041164
 20
196.9330101582836
 30
0.0
 10
56.24601938334563
 20
196.9325066680375
 30
0.0
 10
56.3057958893349
 20
196.9317116947245
 30
0.0
 10
56.36673286726449
 20
196.9306915267986
 30
0.0
 10
56.42879491724261
 20
196.9294687303294
 30
0.0
 10
56.49194664227174
 20
196.9280658598759
 30
0.0
 10
56.55615264082195
 20
196.9265054767189
 30
0.0
 10
56.62137750965133
 20
196.9248101475774
 30
0.0
 10
56.68758584307452
 20
196.9230024283203
 30
0.0
 10
56.75911205954613
 20
196.9209814608278
 30
0.0
 10
56.8360343780914
 20
196.9187564837015
 30
0.0
 10
56.9184109956789
 20
196.9163526054992
 30
0.0
 10
57.00191023066656
 20
196.9139322953264
 30
0.0
 10
57.08643576939433
 20
196.9115354590031
 30
0.0
 10
57.1718912980075
 20
196.9092020240228
 30
0.0
 10
57.25818050200692
 20
196.9069719155929
 30
0.0
 10
57.34520706696951
 20
196.9048850685653
 30
0.0
 10
57.43287467914659
 20
196.902981398861
 30
0.0
 10
57.52108702510812
 20
196.9013009024032
 30
0.0
 10
57.60974779523621
 20
196.8998832811772
 30
0.0
 10
57.69876067264448
 20
196.8987693456894
 30
0.0
 10
57.78802937689203
 20
196.8979957499538
 30
0.0
 10
57.87745750248101
 20
196.8976147141126
 30
0.0
 10
57.96694912667229
 20
196.8976202518653
 30
0.0
 10
58.02661884696425
 20
196.8980227429851
 30
0.0
 10
58.05644837386552
 20
196.8982239592773
 30
0.0
 11
54.85644837386548
 21
196.8848265504048
 31
0.0
 11
54.85678759901853
 21
196.8851932671162
 31
0.0
 11
54.85712984237995
 21
196.8855571686584
 31
0.0
 11
54.8579574022509
 21
196.8864184054161
 31
0.0
 11
54.8591082887495
 21
196.8875822167739
 31
0.0
 11
54.86164710405122
 21
196.8900313311509
 31
0.0
 11
54.86387029828279
 21
196.8920585637061
 31
0.0
 11
54.86561649558478
 21
196.89358077176
 31
0.0
 11
54.86672432009772
 21
196.8945148126323
 31
0.0
 11
54.8748375251922
 21
196.9006985387843
 31
0.0
 11
54.88273989922265
 21
196.9057317299246
 31
0.0
 11
54.89028049935655
 21
196.9097538775489
 31
0.0
 11
54.89730838276142
 21
196.9129044731526
 31
0.0
 11
54.9104750979856
 21
196.9174891593497
 31
0.0
 11
54.92458973792073
 21
196.9208314451194
 31
0.0
 11
54.9397064630442
 21
196.9229798497766
 31
0.0
 11
54.95587943383345
 21
196.9239828926361
 31
0.0
 11
54.95806077642207
 21
196.9240316587255
 31
0.0
 11
54.95975580986551
 21
196.9240566495289
 31
0.0
 11
54.96085174023511
 21
196.924067151796
 31
0.0
 11
54.96339800565892
 21
196.9240884725422
 31
0.0
 11
54.96597443246156
 21
196.9241100455048
 31
0.0
 11
54.97121732374588
 21
196.9241539444126
 31
0.0
 11
54.9765805174282
 21
196.924198849528
 31
0.0
 11
54.98766596490771
 21
196.9242916634895
 31
0.0
 11
54.99922984072742
 21
196.9243884807135
 31
0.0
 11
55.01538956271585
 21
196.9245237744977
 31
0.0
 11
55.032391418836
 21
196.9246661195741
 31
0.0
 11
55.05023191128231
 21
196.924815489373
 31
0.0
 11
55.07395085405111
 21
196.9250140821521
 31
0.0
 11
55.09896391537062
 21
196.9252235145311
 31
0.0
 11
55.12525954246537
 21
196.9254436894969
 31
0.0
 11
55.15282618255989
 21
196.9256745100364
 31
0.0
 11
55.18165228287871
 21
196.9259158791364
 31
0.0
 11
55.21172629064636
 21
196.926167699784
 31
0.0
 11
55.24303665308735
 21
196.9264298749659
 31
0.0
 11
55.27557181742624
 21
196.9267023076691
 31
0.0
 11
55.30932023088755
 21
196.9269849008805
 31
0.0
 11
55.3442703406958
 21
196.9272775575869
 31
0.0
 11
55.3804105940755
 21
196.9275801807753
 31
0.0
 11
55.41772943825122
 21
196.9278926734326
 31
0.0
 11
55.45621532044749
 21
196.9282149385456
 31
0.0
 11
55.4958566878888
 21
196.9285468791013
 31
0.0
 11
55.53664198779968
 21
196.9288883980865
 31
0.0
 11
55.5785596674047
 21
196.9292393984882
 31
0.0
 11
55.62159817392838
 21
196.9295997832933
 31
0.0
 11
55.66574595459521
 21
196.9299694554885
 31
0.0
 11
55.71099145662976
 21
196.9303483180609
 31
0.0
 11
55.73931637954173
 21
196.9305854949666
 31
0.0
 11
55.76716299600903
 21
196.9308186650973
 31
0.0
 11
55.79477740868881
 21
196.9310498895098
 31
0.0
 11
55.82240572023812
 21
196.9312812292609
 31
0.0
 11
55.85029403331406
 21
196.9315147454075
 31
0.0
 11
55.87868845057369
 21
196.9317524990062
 31
0.0
 11
55.90783507467417
 21
196.9319965511139
 31
0.0
 11
55.93798000827252
 21
196.9322489627875
 31
0.0
 11
55.96785628158263
 21
196.9324991257054
 31
0.0
 11
55.99805314636302
 21
196.932751974214
 31
0.0
 11
56.00565245247812
 21
196.9328156059876
 31
0.0
 11
56.01327143833277
 21
196.9328794026486
 31
0.0
 11
56.02091045887437
 21
196.9329436847565
 31
0.0
 11
56.02856902097329
 21
196.9330072894432
 31
0.0
 11
56.04396119758851
 21
196.9331191601144
 31
0.0
 11
56.05945494668009
 21
196.9332049328432
 31
0.0
 11
56.10120134650858
 21
196.9333099778922
 31
0.0
 11
56.14372698915121
 21
196.9332431275059
 31
0.0
 11
56.18702732636353
 21
196.9330132200014
 31
0.0
 11
56.24561938355743
 21
196.9324721486407
 31
0.0
 11
56.30540746433993
 21
196.9316828827444
 31
0.0
 11
56.36635614892469
 21
196.9306680195358
 31
0.0
 11
56.42843001752541
 21
196.9294501562379
 31
0.0
 11
56.49159365035582
 21
196.9280518900742
 31
0.0
 11
56.55581162762954
 21
196.9264958182676
 31
0.0
 11
56.62104852956031
 21
196.9248045380415
 31
0.0
 11
56.6872689363618
 21
196.9230006466192
 31
0.0
 11
56.75443742824774
 21
196.9211067412237
 31
0.0
 11
56.83562776383424
 21
196.9187647902031
 31
0.0
 11
56.91803703355701
 21
196.916366177052
 31
0.0
 11
57.00156890297103
 21
196.9139508929946
 31
0.0
 11
57.08612703763127
 21
196.9115589292552
 31
0.0
 11
57.17161510309271
 21
196.9092302770583
 31
0.0
 11
57.2579367649103
 21
196.9070049276281
 31
0.0
 11
57.34499568863902
 21
196.904922872189
 31
0.0
 11
57.43269553983383
 21
196.9030241019653
 31
0.0
 11
57.5209399840497
 21
196.9013486081815
 31
0.0
 11
57.6096326868416
 21
196.8999363820618
 31
0.0
 11
57.69867731376452
 21
196.8988274148306
 31
0.0
 11
57.7879775303734
 21
196.8980616977122
 31
0.0
 11
57.8774370022232
 21
196.8976792219309
 31
0.0
 11
57.96695939486894
 21
196.8977199787112
 31
0.0
 11
58.05644837386552
 21
196.8982239592773
 31
0.0
  0
SPLINE
  5
164
330
1F
100
AcDbEntity
  8
0
  6
Continuous
 62
     2
100
AcDbSpline
210
0.0
220
0.0
230
1.0
 70
     8
 71
     3
 72
    15
 73
    11
 74
     9
 42
0.000000001
 43
0.0000000001
 44
0.00000001
 40
0.0
 40
0.0
 40
0.0
 40
0.0
 40
0.1105834227829608
 40
0.2211668455659024
 40
0.5173517496936697
 40
0.9226136220484427
 40
1.422475857656316
 40
1.990501645390728
 40
2.561811607277087
 40
3.149999997087517
 40
3.149999997087517
 40
3.149999997087517
 40
3.149999997087517
 10
57.24116850208139
 20
199.9408903413039
 30
0.0
 10
57.25070885891009
 20
199.9052852110265
 30
0.0
 10
57.26978957398297
 20
199.834074950851
 30
0.0
 10
57.31442303330187
 20
199.6675004691139
 30
0.0
 10
57.38447933228252
 20
199.4060468234927
 30
0.0
 10
57.48811986478505
 20
199.0192550186368
 30
0.0
 10
57.61521293945105
 20
198.5449371729609
 30
0.0
 10
57.75663147994916
 20
198.0171559469877
 30
0.0
 10
57.90567017582958
 20
197.4609358809776
 30
0.0
 10
58.00570359495181
 20
197.0876060799354
 30
0.0
 10
58.05644837386552
 20
196.8982239592773
 30
0.0
 11
57.24116850208139
 21
199.9408903413039
 31
0.0
 11
57.26978957507724
 21
199.8340749511443
 31
0.0
 11
57.29841065876082
 21
199.7272595638484
 31
0.0
 11
57.37506893959798
 21
199.4411669120513
 31
0.0
 11
57.47995841897108
 21
199.0497140000666
 31
0.0
 11
57.60933227398028
 21
198.5668841540266
 31
0.0
 11
57.75634815277971
 21
198.0182133721254
 31
0.0
 11
57.90421403620267
 21
197.4663703210048
 31
0.0
 11
58.05644837386552
 21
196.8982239592773
 31
0.0
  0
SPLINE
  5
165
330
1F
100
AcDbEntity
  8
0
  6
Continuous
 62
     7
100
AcDbSpline
210
0.0
220
0.0
230
1.0
 70
     8
 71
     3
 72
    11
 73
     7
 74
     5
 42
0.000000001
 43
0.0000000001
 44
0.00000001
 40
0.0
 40
0.0
 40
0.0
 40
0.0
 40
0.0765279280450216
 40
0.15674489318337
 40
0.2443859864559481
 40
0.3297560023787941
 40
0.3297560023787941
 40
0.3297560023787941
 40
0.3297560023787941
 10
56.43789483413508
 20
199.62033478159
 30
0.0
 10
56.46010456875462
 20
199.6328858784276
 30
0.0
 10
56.50559466803587
 20
199.6585930858348
 30
0.0
 10
56.57779633948536
 20
199.6963400821903
 30
0.0
 10
56.65351662749271
 20
199.7336768205741
 30
0.0
 10
56.70614177899798
 20
199.7572766394379
 30
0.0
 10
56.73210895870074
 20
199.7689216473291
 30
0.0
 11
56.43789483413508
 21
199.62033478159
 31
0.0
 11
56.50471921578562
 21
199.6576312399828
 31
0.0
 11
56.57574014102937
 21
199.6949245331789
 31
0.0
 11
56.65442444713867
 21
199.7335216995626
 31
0.0
 11
56.73210895870074
 21
199.7689216473291
 31
0.0
  0
SPLINE
  5
166
330
1F
100
AcDbEntity
  8
0
  6
Continuous
 62
     7
100
AcDbSpline
210
0.0
220
0.0
230
1.0
 70
     8
 71
     3
 72
    11
 73
     7
 74
     5
 42
0.000000001
 43
0.0000000001
 44
0.00000001
 40
0.0
 40
0.0
 40
0.0
 40
0.0
 40
0.0002721349377432
 40
0.0005442445337502
 40
0.0008163311371006
 40
0.0010883923599192
 40
0.0010883923599192
 40
0.0010883923599192
 40
0.0010883923599192
 10
57.16182849661306
 20
199.9196310168342
 30
0.0
 10
57.16191610827143
 20
199.9196545285343
 30
0.0
 10
57.1620913255218
 20
199.9197015419479
 30
0.0
 10
57.16235414619166
 20
199.9197720355936
 30
0.0
 10
57.16261694940233
 20
199.9198424994796
 30
0.0
 10
57.16279214806499
 20
199.9198894577529
 30
0.0
 10
57.16287974435551
 20
199.9199129318948
 30
0.0
 11
57.16182849661306
 21
199.9196310168342
 31
0.0
 11
57.16209133315757
 21
199.9197015460856
 31
0.0
 11
57.16235415254863
 21
199.9197720414777
 31
0.0
 11
57.16261695705132
 21
199.91984250362
 31
0.0
 11
57.16287974435551
 21
199.9199129318948
 31
0.0
  0
SPLINE
  5
167
330
1F
100
AcDbEntity
  8
0
  6
Continuous
 62
     7
100
AcDbSpline
210
0.0
220
0.0
230
1.0
 70
     8
 71
     3
 72
    11
 73
     7
 74
     5
 42
0.000000001
 43
0.0000000001
 44
0.00000001
 40
0.0
 40
0.0
 40
0.0
 40
0.0
 40
0.1080121992889346
 40
0.2266486711289388
 40
0.336436040593586
 40
0.4509789670707399
 40
0.4509789670707399
 40
0.4509789670707399
 40
0.4509789670707399
 10
56.73210895870074
 20
199.7689216473291
 30
0.0
 10
56.76522946364159
 20
199.7830509200676
 30
0.0
 10
56.83472827138166
 20
199.8126992317197
 30
0.0
 10
56.93990988281607
 20
199.8517101863461
 30
0.0
 10
57.04838189282077
 20
199.8879214445774
 30
0.0
 10
57.12039946272428
 20
199.9080869496971
 30
0.0
 10
57.15717159666878
 20
199.9183834383319
 30
0.0
 11
56.73210895870074
 21
199.7689216473291
 31
0.0
 11
56.83177922284018
 21
199.8105446419463
 31
0.0
 11
56.94290074778775
 21
199.852097250079
 31
0.0
 11
57.04713347408573
 21
199.8865763066729
 31
0.0
 11
57.15717159666878
 21
199.9183834383319
 31
0.0
  0
SPLINE
  5
168
330
1F
100
AcDbEntity
  8
0
  6
Continuous
 62
     2
100
AcDbSpline
210
0.0
220
0.0
230
1.0
 70
     8
 71
     3
 72
    11
 73
     7
 74
     5
 42
0.000000001
 43
0.0000000001
 44
0.00000001
 40
0.0
 40
0.0
 40
0.0
 40
0.0
 40
0.2179321097881667
 40
0.4351430607846005
 40
9.038676871167777
 40
17.64221068192199
 40
17.64221068192199
 40
17.64221068192199
 40
17.64221068192199
 10
58.05644837386552
 20
196.8982239592773
 30
0.0
 10
58.12873680051349
 20
196.9057510399381
 30
0.0
 10
58.27307444597414
 20
196.920780279222
 30
0.0
 10
61.23430587724337
 20
197.4855784541865
 30
0.0
 10
66.77717971473433
 20
199.2725832669218
 30
0.0
 10
72.33072483264581
 20
200.7010444112694
 30
0.0
 10
75.10749739520924
 20
201.4152749626141
 30
0.0
 11
58.05644837386552
 21
196.8982239592773
 31
0.0
 11
58.27286792215065
 21
196.9238556495733
 31
0.0
 11
58.48674638645105
 21
196.9617581522186
 31
0.0
 11
66.79712189083043
 21
199.1885165574164
 31
0.0
 11
75.10749739520924
 21
201.4152749626141
 31
0.0
  0
SPLINE
  5
169
330
1F
100
AcDbEntity
  8
0
  6
Continuous
 62
     7
100
AcDbSpline
210
0.0
220
0.0
230
1.0
 70
     8
 71
     3
 72
    15
 73
    11
 74
     9
 42
0.000000001
 43
0.0000000001
 44
0.00000001
 40
0.0
 40
0.0
 40
0.0
 40
0.0
 40
3.678283147251405
 40
6.697436996846754
 40
8.560428429251118
 40
10.14061934445173
 40
11.37301946799379
 40
12.46338796610979
 40
12.94026784258912
 40
13.40892127539378
 40
13.40892127539378
 40
13.40892127539378
 40
13.40892127539378
 10
75.10749739520924
 20
201.4152749626141
 30
0.0
 10
76.30187456130261
 20
201.136540094427
 30
0.0
 10
78.47660268992209
 20
200.6290182090955
 30
0.0
 10
81.19021590334435
 20
199.7279471178368
 30
0.0
 10
83.15696418160533
 20
198.8406990334204
 30
0.0
 10
84.49180062126193
 20
198.0253747545878
 30
0.0
 10
85.48126113698302
 20
197.1695683253913
 30
0.0
 10
86.04643207684043
 20
196.4158281819064
 30
0.0
 10
86.34778509607675
 20
195.8050280023982
 30
0.0
 10
86.44079650314079
 20
195.5034318509482
 30
0.0
 10
86.48689758568474
 20
195.3539457645795
 30
0.0
 11
75.10749739520924
 21
201.4152749626141
 31
0.0
 11
78.67504253164958
 21
200.5195135300934
 31
0.0
 11
81.53308610953496
 21
199.5464375445266
 31
0.0
 11
83.22403168011797
 21
198.7644911570022
 31
0.0
 11
84.56270405492495
 21
197.9248724345376
 31
0.0
 11
85.48349983481212
 21
197.1057599920671
 31
0.0
 11
86.12942605186521
 21
196.2273052242178
 31
0.0
 11
86.33706119065818
 21
195.7980010554056
 31
0.0
 11
86.48689758568474
 21
195.3539457645795
 31
0.0
  0
SPLINE
  5
16A
330
1F
100
AcDbEntity
  8
0
  6
Continuous
 62
     7
100
AcDbSpline
210
0.0
220
0.0
230
1.0
 70
     8
 71
     3
 72
    27
 73
    23
 74
    21
 42
0.000000001
 43
0.0000000001
 44
0.00000001
 40
0.0
 40
0.0
 40
0.0
 40
0.0
 40
0.5797658143426897
 40
1.042761855527364
 40
1.607161699760312
 40
2.00115164549809
 40
2.297207899250543
 40
2.513182556108935
 40
2.71649504304518
 40
2.889804304162312
 40
3.110557585303397
 40
3.327167179116907
 40
3.489869306457766
 40
3.651333886818545
 40
3.816525389701794
 40
3.994335444897403
 40
4.272629856171153
 40
4.577935619407097
 40
4.850646758603731
 40
5.172821627362342
 40
5.697498509297393
 40
6.372360942205107
 40
6.372360942205107
 40
6.372360942205107
 40
6.372360942205107
 10
74.27927645088113
 20
204.5062376067391
 30
0.0
 10
74.0932290621238
 20
204.4536936459851
 30
0.0
 10
73.75860581584953
 20
204.3591885173945
 30
0.0
 10
73.254913547623
 20
204.1757058309591
 30
0.0
 10
72.82340196312529
 20
203.9770056787911
 30
0.0
 10
72.47131782925814
 20
203.748251049657
 30
0.0
 10
72.25164904793388
 20
203.5373693238923
 30
0.0
 10
72.12428816390246
 20
203.3324494085118
 30
0.0
 10
72.07727189794807
 20
203.1360376417537
 30
0.0
 10
72.10146548279388
 20
202.9350389322246
 30
0.0
 10
72.19033959415871
 20
202.7482417423653
 30
0.0
 10
72.31720422458991
 20
202.5922331794342
 30
0.0
 10
72.44879892746388
 20
202.4686621354244
 30
0.0
 10
72.57713623947804
 20
202.3677107576578
 30
0.0
 10
72.71618882928672
 20
202.2729716289535
 30
0.0
 10
72.89385064975562
 20
202.1663593892228
 30
0.0
 10
73.11929792550619
 20
202.0493562323703
 30
0.0
 10
73.38016077457073
 20
201.9331535553628
 30
0.0
 10
73.65964522793219
 20
201.8237273084092
 30
0.0
 10
74.01235714070506
 20
201.7015913160982
 30
0.0
 10
74.49870560941245
 20
201.5564131012728
 30
0.0
 10
74.88830708124219
 20
201.4660905468506
 30
0.0
 10
75.10749739520924
 20
201.4152749626141
 30
0.0
 11
74.27927645088113
 21
204.5062376067391
 31
0.0
 11
73.72355059688795
 21
204.3410190126688
 31
0.0
 11
73.28874286049808
 21
204.1819354905897
 31
0.0
 11
72.77928484112036
 21
203.9390369288817
 31
0.0
 11
72.45242735547214
 21
203.7190545163714
 31
0.0
 11
72.24325907078568
 21
203.5095361773237
 31
0.0
 11
72.13301422531498
 21
203.3238183087481
 31
0.0
 11
72.0880443588157
 21
203.1255415356493
 31
0.0
 11
72.10754994611267
 21
202.9533334281514
 31
0.0
 11
72.198283502896
 21
202.7520887185349
 31
0.0
 11
72.33255037139344
 21
202.5821118835829
 31
0.0
 11
72.4506444781936
 21
202.470193322542
 31
0.0
 11
72.57722722793238
 21
202.3699555138629
 31
0.0
 11
72.71353088134916
 21
202.276630561179
 31
0.0
 11
72.86581953594299
 21
202.184845042055
 31
0.0
 11
73.11243389914132
 21
202.0558910368478
 31
0.0
 11
73.39103146258293
 21
201.931011066525
 31
0.0
 11
73.64485971437327
 21
201.8312985585389
 31
0.0
 11
73.94911910165268
 21
201.7253605030022
 31
0.0
 11
74.45189581159806
 21
201.5753557988272
 31
0.0
 11
75.10749739520924
 21
201.4152749626141
 31
0.0
  0
SPLINE
  5
16B
330
1F
100
AcDbEntity
  8
0
  6
Continuous
 62
     7
100
AcDbSpline
210
0.0
220
0.0
230
1.0
 70
     8
 71
     3
 72
    72
 73
    68
 74
    66
 42
0.000000001
 43
0.0000000001
 44
0.00000001
 40
0.0
 40
0.0
 40
0.0
 40
0.0
 40
0.0005340628271509
 40
0.0010681258511586
 40
0.0024021298961649
 40
0.0042747290138717
 40
0.0081676682710794
 40
0.0117867646229524
 40
0.0148568179639718
 40
0.0171025165058983
 40
0.0259501114813934
 40
0.0346370833622174
 40
0.0429519610580816
 40
0.0506830076676337
 40
0.0576182999713485
 40
0.0635457805004483
 40
0.0682532931667628
 40
0.0840060837180067
 40
0.0993406289614668
 40
0.1140637412029412
 40
0.1279819263877144
 40
0.1409014506313322
 40
0.1526283899934912
 40
0.1734550852679635
 40
0.1938560827768437
 40
0.213701272596895
 40
0.2328603293224961
 40
0.2512027469856324
 40
0.2685978673271715
 40
0.3033247276702606
 40
0.3379016337912312
 40
0.3721912909319329
 40
0.4060560454641443
 40
0.4393579381745298
 40
0.4719587481069318
 40
0.5037200289114777
 40
0.5345031392055283
 40
0.5641692681231935
 40
0.5925794569881807
 40
0.6652729308796655
 40
0.7382664342902909
 40
0.8112996256372746
 40
0.8841112566244638
 40
0.9564393136733336
 40
1.028021133578701
 40
1.138730396821138
 40
1.25061137842072
 40
1.363467344850182
 40
1.477100409886213
 40
1.591311716247976
 40
1.705901594273862
 40
1.820669702502203
 40
1.935415154226646
 40
2.049936633519076
 40
2.164032503804048
 40
2.279597081108895
 40
2.394684045357757
 40
2.509222103136468
 40
2.623140051279734
 40
2.736366885272451
 40
2.848831911895235
 40
2.960464867330784
 40
3.071196042064778
 40
3.18095641405462
 40
3.289677791811075
 40
3.3972929692675
 40
3.50373589501483
 40
3.50373589501483
 40
3.50373589501483
 40
3.50373589501483
 10
80.35644837386548
 20
157.988864885634
 30
0.0
 10
80.35627455243255
 20
157.9889033253283
 30
0.0
 10
80.35592691262158
 20
157.9889802188741
 30
0.0
 10
80.35514447571242
 20
157.9891503108353
 30
0.0
 10
80.35392495699045
 20
157.9894101551737
 30
0.0
 10
80.35160798246261
 20
157.9898918826333
 30
0.0
 10
80.3485410744866
 20
157.9905083242754
 30
0.0
 10
80.34507857237344
 20
157.9911817276299
 30
0.0
 10
80.34215247643876
 20
157.9917368691822
 30
0.0
 10
80.33751118966133
 20
157.9926014060285
 30
0.0
 10
80.33102184458855
 20
157.9937688638535
 30
0.0
 10
80.32252961879513
 20
157.9952272913662
 30
0.0
 10
80.31439533706654
 20
157.9965699512093
 30
0.0
 10
80.30683056368932
 20
157.9977767999177
 30
0.0
 10
80.30004688536522
 20
157.9988278906605
 30
0.0
 10
80.29425589262378
 20
157.9997032168826
 30
0.0
 10
80.28555497076779
 20
158.0009925612483
 30
0.0
 10
80.27374325536044
 20
158.0026807431924
 30
0.0
 10
80.25861175305793
 20
158.0047345838871
 30
0.0
 10
80.2440744956672
 20
158.0066175293588
 30
0.0
 10
80.23032630893289
 20
158.008323800913
 30
0.0
 10
80.21756204732213
 20
158.009847840871
 30
0.0
 10
80.2025041190313
 20
158.0115845553894
 30
0.0
 10
80.18495880499204
 20
158.0135193047576
 30
0.0
 10
80.16471108860787
 20
158.0156328471831
 30
0.0
 10
80.14500571998751
 20
158.0175850219184
 30
0.0
 10
80.1259744589077
 20
158.019378902744
 30
0.0
 10
80.1077490620423
 20
158.021017592604
 30
0.0
 10
80.08434724350492
 20
158.0230299063031
 30
0.0
 10
80.05554068311486
 20
158.0253505130639
 30
0.0
 10
80.02110338247203
 20
158.0278974914067
 30
0.0
 10
79.9869381392218
 20
158.0302180920815
 30
0.0
 10
79.95318483906833
 20
158.0323238931845
 30
0.0
 10
79.91998335686034
 20
158.0342264676736
 30
0.0
 10
79.88747357793159
 20
158.0359374009128
 30
0.0
 10
79.85579539030856
 20
158.0374682828906
 30
0.0
 10
79.8250886876774
 20
158.0388307103029
 30
0.0
 10
79.79549336003379
 20
158.0400362751374
 30
0.0
 10
79.75193384052409
 20
158.0416657896376
 30
0.0
 10
79.69393030176035
 20
158.0435150368351
 30
0.0
 10
79.6210453165221
 20
158.0453170792239
 30
0.0
 10
79.54811087560944
 20
158.0466476854249
 30
0.0
 10
79.47539176752335
 20
158.0475470221963
 30
0.0
 10
79.40315273816586
 20
158.0480553390983
 30
0.0
 10
79.31827961866688
 20
158.0482422049811
 30
0.0
 10
79.22022211222706
 20
158.0479086409029
 30
0.0
 10
79.10841106839428
 20
158.0468586211731
 30
0.0
 10
78.99563273562686
 20
158.0452042583759
 30
0.0
 10
78.88208671183389
 20
158.0430151131695
 30
0.0
 10
78.76797257390703
 20
158.040360693791
 30
0.0
 10
78.65348992075747
 20
158.0373105384211
 30
0.0
 10
78.53883835803828
 20
158.033934188604
 30
0.0
 10
78.42421749915476
 20
158.0303011951796
 30
0.0
 10
78.30982696264002
 20
158.0264811051216
 30
0.0
 10
78.19516806305305
 20
158.0225193642582
 30
0.0
 10
78.08032327911914
 20
158.0184798168236
 30
0.0
 10
77.965331524082
 20
158.0144256643357
 30
0.0
 10
77.85088641227846
 20
158.0104445999162
 30
0.0
 10
77.73705692973014
 20
158.0066023214725
 30
0.0
 10
77.62391205953408
 20
158.002964498882
 30
0.0
 10
77.51152078140515
 20
157.9995969263512
 30
0.0
 10
77.39995207083152
 20
157.9965649217231
 30
0.0
 10
77.2892748975261
 20
157.9939355522404
 30
0.0
 10
77.17955822644136
 20
157.9917694272743
 30
0.0
 10
77.07087100861648
 20
157.9901509193339
 30
0.0
 10
76.96328220851655
 20
157.9890770027876
 30
0.0
 10
76.89192940171563
 20
157.9889353278959
 30
0.0
 10
76.85644837386548
 20
157.988864885634
 30
0.0
 11
80.35644837386548
 21
157.988864885634
 31
0.0
 11
80.3559268411824
 21
157.9889798939179
 31
0.0
 11
80.35540499102996
 21
157.9890934529922
 31
0.0
 11
80.35410035750527
 21
157.9893718377761
 31
0.0
 11
80.35226705837562
 21
157.9897534681012
 31
0.0
 11
80.3484507671026
 21
157.9905221662592
 31
0.0
 11
80.34489835624885
 21
157.9912137119577
 31
0.0
 11
80.34188214163585
 21
157.9917861426345
 31
0.0
 11
80.33967443908517
 21
157.9921974957275
 31
0.0
 11
80.33096711644923
 21
157.9937667213635
 31
0.0
 11
80.32240578181606
 21
157.9952388047657
 31
0.0
 11
80.31420208548664
 21
157.9965940012326
 31
0.0
 11
80.306567677762
 21
157.997812566063
 31
0.0
 11
80.2997142089431
 21
157.9988747545553
 31
0.0
 11
80.29385332933097
 21
157.9997608220081
 31
0.0
 11
80.28919668922657
 21
158.0004510237201
 31
0.0
 11
80.27360265984936
 21
158.0026818660614
 31
0.0
 11
80.2584077024
 21
158.0047462171983
 31
0.0
 11
80.24380671745169
 21
158.0066386421899
 31
0.0
 11
80.22999460557764
 21
158.0083537060955
 31
0.0
 11
80.21716626735103
 21
158.0098859739743
 31
0.0
 11
80.20551660334507
 21
158.0112300108854
 31
0.0
 11
80.18481558633727
 21
158.0135145525268
 31
0.0
 11
80.16452498445844
 21
158.0156340275593
 31
0.0
 11
80.14477658022801
 21
158.0175915997931
 31
0.0
 11
80.1257021561655
 21
158.0193904330382
 31
0.0
 11
80.10743349479043
 21
158.0210336911048
 31
0.0
 11
80.09010237862225
 21
158.0225245378029
 31
0.0
 11
80.05548794070816
 21
158.025316583022
 31
0.0
 11
80.02100543557628
 21
158.0278698703395
 31
0.0
 11
79.98679477261865
 21
158.0301960531111
 31
0.0
 11
79.95299586122735
 21
158.0323067846927
 31
0.0
 11
79.91974861079441
 21
158.0342137184399
 31
0.0
 11
79.8871929307119
 21
158.0359285077087
 31
0.0
 11
79.85546873037192
 21
158.0374628058547
 31
0.0
 11
79.8247159191665
 21
158.0388282662338
 31
0.0
 11
79.79507440648763
 21
158.0400365422016
 31
0.0
 11
79.76668410172744
 21
158.041099287114
 31
0.0
 11
79.69402785418846
 21
158.0434254080651
 31
0.0
 11
79.62105685905851
 21
158.0452379777268
 31
0.0
 11
79.54803595133754
 21
158.0465774078113
 31
0.0
 11
79.47522996602552
 21
158.0474841100308
 31
0.0
 11
79.40290373812232
 21
158.0479984960974
 31
0.0
 11
79.3313221026279
 21
158.0481609777234
 31
0.0
 11
79.22061342777455
 21
158.0478000364081
 31
0.0
 11
79.10873724607742
 21
158.0467636911485
 31
0.0
 11
78.99589322589424
 21
158.0451216598645
 31
0.0
 11
78.8822810355826
 21
158.0429436604757
 31
0.0
 11
78.76810034350012
 21
158.040299410902
 31
0.0
 11
78.65355081800456
 21
158.0372586290632
 31
0.0
 11
78.53883212745345
 21
158.0338910328789
 31
0.0
 11
78.42414394020453
 21
158.0302663402692
 31
0.0
 11
78.3096859246154
 21
158.0264542691536
 31
0.0
 11
78.19565774904373
 21
158.0225245374521
 31
0.0
 11
78.08016422726973
 21
158.0184726298706
 31
0.0
 11
77.9651483492938
 21
158.0144282322237
 31
0.0
 11
77.85067915327706
 21
158.0104571062543
 31
0.0
 11
77.73682567738051
 21
158.0066250137057
 31
0.0
 11
77.62365695976528
 21
158.0029977163208
 31
0.0
 11
77.51124203859243
 21
157.9996409758429
 31
0.0
 11
77.39964995202303
 21
157.9966205540149
 31
0.0
 11
77.28894973821818
 21
157.9940022125801
 31
0.0
 11
77.17921043533892
 21
157.9918517132815
 31
0.0
 11
77.0705010815463
 21
157.9902348178622
 31
0.0
 11
76.96289071500149
 21
157.9892172880654
 31
0.0
 11
76.85644837386548
 21
157.988864885634
 31
0.0
  0
SPLINE
  5
16C
330
1F
100
AcDbEntity
  8
0
  6
Continuous
 62
     7
100
AcDbSpline
210
0.0
220
0.0
230
1.0
 70
     8
 71
     3
 72
     9
 73
     5
 74
     3
 42
0.000000001
 43
0.0000000001
 44
0.00000001
 40
0.0
 40
0.0
 40
0.0
 40
0.0
 40
0.0000446013300715
 40
0.000089202452505
 40
0.000089202452505
 40
0.000089202452505
 40
0.000089202452505
 10
56.85644837387014
 20
157.988864885634
 30
0.0
 10
56.85646324098014
 20
157.9888648858899
 30
0.0
 10
56.856492975131
 20
157.9888648862921
 30
0.0
 10
56.85652270928184
 20
157.9888648864749
 30
0.0
 10
56.85653757632264
 20
157.9888648865114
 30
0.0
 11
56.85644837387014
 21
157.988864885634
 31
0.0
 11
56.8564929752002
 21
157.988864886292
 31
0.0
 11
56.85653757632264
 21
157.9888648865114
 31
0.0
  0
SPLINE
  5
16D
330
1F
100
AcDbEntity
  8
0
  6
Continuous
 62
     7
100
AcDbSpline
210
0.0
220
0.0
230
1.0
 70
     8
 71
     3
 72
    27
 73
    23
 74
    21
 42
0.000000001
 43
0.0000000001
 44
0.00000001
 40
0.0
 40
0.0
 40
0.0
 40
0.0
 40
0.0100531107335538
 40
0.0332893991716923
 40
0.0705700680758977
 40
0.1136181332808762
 40
0.1495653179996355
 40
0.1979103271270209
 40
0.256101750019554
 40
0.3352492633791086
 40
0.412263282604843
 40
0.4846775083483178
 40
0.5500134240409086
 40
0.7478420690485534
 40
0.9416818404702676
 40
1.275556850802851
 40
1.617108364791855
 40
1.959145998972044
 40
2.267522262484254
 40
2.571554627947346
 40
2.869413072221064
 40
3.159296644228163
 40
3.159296644228163
 40
3.159296644228163
 40
3.159296644228163
 10
54.85678302846856
 20
159.4891995411145
 30
0.0
 10
54.85982508149401
 20
159.4906193955978
 30
0.0
 10
54.86989838472004
 20
159.4953210542857
 30
0.0
 10
54.89306213113858
 20
159.5002701358447
 30
0.0
 10
54.92674989386467
 20
159.5074546255627
 30
0.0
 10
54.96506020787611
 20
159.5135951773082
 30
0.0
 10
55.00707523404056
 20
159.5195793953382
 30
0.0
 10
55.05422500599852
 20
159.5253464652806
 30
0.0
 10
55.11578836167079
 20
159.5317581957606
 30
0.0
 10
55.18698707752365
 20
159.5378189446019
 30
0.0
 10
55.2630045372471
 20
159.5430090151178
 30
0.0
 10
55.33448674594985
 20
159.5469334319448
 30
0.0
 10
55.44623826445145
 20
159.5518805427618
 30
0.0
 10
55.5985352257609
 20
159.5559213987518
 30
0.0
 10
55.84038584287083
 20
159.5576868163886
 30
0.0
 10
56.13014199406499
 20
159.5540634260471
 30
0.0
 10
56.46916366350676
 20
159.5442969893045
 30
0.0
 10
56.79957518022982
 20
159.5315425015211
 30
0.0
 10
57.11743815883867
 20
159.5180533836101
 30
0.0
 10
57.42060553108071
 20
159.5056545204103
 30
0.0
 10
57.71768010948995
 20
159.4949490428886
 30
0.0
 10
57.91355938462652
 20
159.4910986219988
 30
0.0
 10
58.01017011259609
 20
159.4891995411145
 30
0.0
 11
54.85678302846856
 21
159.4891995411145
 31
0.0
 11
54.86598702669675
 21
159.493243232739
 31
0.0
 11
54.88842586594696
 21
159.4992784284026
 31
0.0
 11
54.92494647641917
 21
159.5067679726414
 31
0.0
 11
54.96741070921327
 21
159.513833724045
 31
0.0
 11
55.00299954187966
 21
159.5188968332526
 31
0.0
 11
55.05098063876841
 21
159.5248174957036
 31
0.0
 11
55.10885536391885
 21
159.5308803235633
 31
0.0
 11
55.18771232729383
 21
159.537655881914
 31
0.0
 11
55.2645450269123
 21
159.5429374935417
 31
0.0
 11
55.33684919829193
 21
159.5469283440031
 31
0.0
 11
55.40212057695038
 21
159.549831618855
 31
0.0
 11
55.59987317812032
 21
159.5553162791425
 31
0.0
 11
55.79370667406857
 21
159.5568760295429
 31
0.0
 11
56.12756143769368
 21
159.5531991688633
 31
0.0
 11
56.46898209398597
 21
159.5437454846327
 31
0.0
 11
56.81077769197822
 21
159.5308803235633
 31
0.0
 11
57.11888782287689
 21
159.5180714550244
 31
0.0
 11
57.42267318824553
 21
159.5058186596439
 31
0.0
 11
57.72035891063499
 21
159.4956765006108
 31
0.0
 11
58.01017011259609
 21
159.4891995411145
 31
0.0
  0
SPLINE
  5
16E
330
1F
100
AcDbEntity
  8
0
  6
Continuous
 62
     7
100
AcDbSpline
210
0.0
220
0.0
230
1.0
 70
     8
 71
     3
 72
    21
 73
    17
 74
    15
 42
0.000000001
 43
0.0000000001
 44
0.00000001
 40
0.0
 40
0.0
 40
0.0
 40
0.0
 40
0.374173276671028
 40
0.7486140058664257
 40
0.9471473716753886
 40
1.126123792657282
 40
1.32710932892665
 40
1.508171764549893
 40
1.688544886518476
 40
1.871199601360729
 40
2.047230764073407
 40
2.244252899319873
 40
2.442813170273685
 40
2.613386800688722
 40
2.811859185248341
 40
2.988014417700382
 40
2.988014417700382
 40
2.988014417700382
 40
2.988014417700382
 10
54.85644837386548
 20
196.8848265504048
 30
0.0
 10
54.86072040644423
 20
197.0096196595272
 30
0.0
 10
54.86926753987969
 20
197.2592950768332
 30
0.0
 10
54.92772112207873
 20
197.5707960911085
 30
0.0
 10
54.99412656474619
 20
197.8125503594711
 30
0.0
 10
55.05655012721046
 20
197.9951290176634
 30
0.0
 10
55.12757613352119
 20
198.1682583236731
 30
0.0
 10
55.20915494426963
 20
198.3371655590548
 30
0.0
 10
55.29728212876779
 20
198.4957904655433
 30
0.0
 10
55.39346477217616
 20
198.6476859674145
 30
0.0
 10
55.50129980837329
 20
198.7984130364962
 30
0.0
 10
55.62116048358946
 20
198.9466825895158
 30
0.0
 10
55.74874291320634
 20
199.085925717144
 30
0.0
 10
55.88463265187809
 20
199.2176650152959
 30
0.0
 10
56.02190729781573
 20
199.3370348818594
 30
0.0
 10
56.12202547849586
 20
199.4117222599439
 30
0.0
 10
56.16910247501033
 20
199.4468413214291
 30
0.0
 11
54.85644837386548
 21
196.8848265504048
 31
0.0
 11
54.87867122186312
 21
197.2583393162723
 31
0.0
 11
54.94508518746733
 21
197.626843109344
 31
0.0
 11
54.99789963397242
 21
197.8182226582653
 31
0.0
 11
55.05575115888092
 21
197.9875913698665
 31
0.0
 11
55.13204904955435
 21
198.1735317308578
 31
0.0
 11
55.2107898356366
 21
198.33657618599
 31
0.0
 11
55.29838728685348
 21
198.4942503748217
 31
0.0
 11
55.39609972714635
 21
198.6485715465264
 31
0.0
 11
55.49852548636471
 21
198.7917355583009
 31
0.0
 11
55.62237465374352
 21
198.9449644908278
 31
0.0
 11
55.75655135464502
 21
199.0913297682449
 31
0.0
 11
55.87892937318583
 21
199.2101531002673
 31
0.0
 11
56.02915205718986
 21
199.3398621326882
 31
0.0
 11
56.16910247501033
 21
199.4468413214291
 31
0.0
  0
SPLINE
  5
16F
330
1F
100
AcDbEntity
  8
0
  6
Continuous
 62
     7
100
AcDbSpline
210
0.0
220
0.0
230
1.0
 70
     8
 71
     3
 72
    26
 73
    22
 74
    20
 42
0.000000001
 43
0.0000000001
 44
0.00000001
 40
0.0
 40
0.0
 40
0.0
 40
0.0
 40
0.0100531078409793
 40
0.0332893885507482
 40
0.0705700444495312
 40
0.1178891759130718
 40
0.1794257498722956
 40
0.2560993672908287
 40
0.3352468617269307
 40
0.4122608621441842
 40
0.4846750704762354
 40
0.5500109714452103
 40
0.7478396588956924
 40
0.9416794694577724
 40
1.275554478775537
 40
1.617105991163313
 40
1.959143623068113
 40
2.267519883421577
 40
2.571552245859725
 40
2.869410687235827
 40
3.159294256465483
 40
3.159294256465483
 40
3.159294256465483
 40
3.159294256465483
 10
78.8561137192624
 20
159.4891995411145
 30
0.0
 10
78.85307165980893
 20
159.4906193770728
 30
0.0
 10
78.84299833561225
 20
159.4953209742689
 30
0.0
 10
78.81983505769456
 20
159.5002711965633
 30
0.0
 10
78.7847546309272
 20
159.5077436155594
 30
0.0
 10
78.73659218755193
 20
159.5153790820168
 30
0.0
 10
78.67530575775338
 20
159.5235740619053
 30
0.0
 10
78.60324391319863
 20
159.5312274765612
 30
0.0
 10
78.52591059585156
 20
159.5378210927649
 30
0.0
 10
78.44989201693846
 20
159.5430084810204
 30
0.0
 10
78.37841010155594
 20
159.5469335487735
 30
0.0
 10
78.2666584849407
 20
159.5518804374006
 30
0.0
 10
78.1143615612751
 20
159.5559214359027
 30
0.0
 10
77.87251089381525
 20
159.5576867983741
 30
0.0
 10
77.58275474069322
 20
159.5540634317427
 30
0.0
 10
77.24373306962588
 20
159.5442969871725
 30
0.0
 10
76.91332155611343
 20
159.5315425014328
 30
0.0
 10
76.59545858011346
 20
159.5180533831402
 30
0.0
 10
76.29229121094765
 20
159.5056545202181
 30
0.0
 10
75.9952166354216
 20
159.4949490428129
 30
0.0
 10
75.799337362178
 20
159.491098621974
 30
0.0
 10
75.70272663513487
 20
159.4891995411145
 30
0.0
 11
78.8561137192624
 21
159.4891995411145
 31
0.0
 11
78.84690972379681
 21
159.4932432318356
 31
0.0
 11
78.82447089214193
 21
159.4992784259835
 31
0.0
 11
78.78795029456757
 21
159.506767968378
 31
0.0
 11
78.74126220284266
 21
159.5144700644478
 31
0.0
 11
78.6802730595386
 21
159.5226599560164
 31
0.0
 11
78.6040413788034
 21
159.5308803240444
 31
0.0
 11
78.52518443428917
 21
159.5376558808528
 31
0.0
 11
78.44835175345887
 21
159.5429374915385
 31
0.0
 11
78.37604759949153
 21
159.5469283415345
 31
0.0
 11
78.31077623556627
 21
159.5498316162738
 31
0.0
 11
78.11302359199834
 21
159.5553162787654
 31
0.0
 11
77.91919005691153
 21
159.5568760295429
 31
0.0
 11
77.58533529430488
 21
159.5531991685399
 31
0.0
 11
77.24391463961867
 21
159.5437454841568
 31
0.0
 11
76.90211904390361
 21
159.5308803230824
 31
0.0
 11
76.59400891616154
 21
159.5180714546611
 31
0.0
 11
76.29022355381436
 21
159.5058186594281
 31
0.0
 11
75.9925378343196
 21
159.4956765005301
 31
0.0
 11
75.70272663513487
 21
159.4891995411145
 31
0.0
  0
SPLINE
  5
170
330
1F
100
AcDbEntity
  8
0
  6
Continuous
 62
     7
100
AcDbSpline
210
0.0
220
0.0
230
1.0
 70
     8
 71
     3
 72
     9
 73
     5
 74
     3
 42
0.000000001
 43
0.0000000001
 44
0.00000001
 40
0.0
 40
0.0
 40
0.0
 40
0.0
 40
0.0000446011247996
 40
0.0000892024571662
 40
0.0000892024571662
 40
0.0000892024571662
 40
0.0000892024571662
 10
76.85635917140831
 20
157.9888648865114
 30
0.0
 10
76.85637403844991
 20
157.9888648864748
 30
0.0
 10
76.8564037726023
 20
157.9888648862921
 30
0.0
 10
76.85643350675468
 20
157.9888648858899
 30
0.0
 10
76.85644837386548
 20
157.988864885634
 30
0.0
 11
76.85635917140831
 21
157.9888648865114
 31
0.0
 11
76.85640377253313
 21
157.988864886292
 31
0.0
 11
76.85644837386548
 21
157.988864885634
 31
0.0
  0
SPLINE
  5
171
330
1F
100
AcDbEntity
  8
0
  6
Continuous
 62
     2
100
AcDbSpline
210
0.0
220
0.0
230
1.0
 70
     8
 71
     3
 72
    11
 73
     7
 74
     5
 42
0.000000001
 43
0.0000000001
 44
0.00000001
 40
0.0
 40
0.0
 40
0.0
 40
0.0
 40
0.0000358190913671
 40
0.0000716381810782
 40
0.0001074572045245
 40
0.0001432758195089
 40
0.0001432758195089
 40
0.0001432758195089
 40
0.0001432758195089
 10
75.65644837386043
 20
180.9763915654801
 30
0.0
 10
75.65645761919876
 20
180.9763991206165
 30
0.0
 10
75.65647610997797
 20
180.9764142307631
 30
0.0
 10
75.65650384618472
 20
180.976436895901
 30
0.0
 10
75.6565315820705
 20
180.9764595611808
 30
0.0
 10
75.65655007231342
 20
180.9764746716978
 30
0.0
 10
75.65655931726468
 20
180.9764822270569
 30
0.0
 11
75.65644837386043
 21
180.9763915654801
 31
0.0
 11
75.65647610990109
 21
180.976414230858
 31
0.0
 11
75.65650384608483
 21
180.9764368960582
 31
0.0
 11
75.65653158221124
 21
180.9764595612238
 31
0.0
 11
75.65655931726468
 21
180.9764822270569
 31
0.0
  0
SPLINE
  5
172
330
1F
100
AcDbEntity
  8
0
  6
Continuous
 62
     7
100
AcDbSpline
210
0.0
220
0.0
230
1.0
 70
     8
 71
     3
 72
    27
 73
    23
 74
    21
 42
0.000000001
 43
0.0000000001
 44
0.00000001
 40
0.0
 40
0.0
 40
0.0
 40
0.0
 40
0.3395869342931669
 40
0.6704060106213876
 40
1.017093772941179
 40
1.321987582938924
 40
1.537433965393283
 40
1.732668275115714
 40
1.928878544170974
 40
2.111473998864792
 40
2.297404721589299
 40
2.475096076400701
 40
2.654981274973656
 40
2.808733634800181
 40
2.921980282596572
 40
3.023624751555837
 40
3.133220552257925
 40
3.231674247872798
 40
3.327557079982434
 40
3.435458103755181
 40
3.530287579596129
 40
3.636102921804485
 40
3.636102921804485
 40
3.636102921804485
 40
3.636102921804485
 10
75.65655931726468
 20
180.9764822270569
 30
0.0
 10
75.74547129035297
 20
181.046608465051
 30
0.0
 10
75.92099961032372
 20
181.1850503275985
 30
0.0
 10
76.2050408482923
 20
181.3709942571533
 30
0.0
 10
76.49384852314702
 20
181.5264652388318
 30
0.0
 10
76.76257743845383
 20
181.6346866210077
 30
0.0
 10
76.99254596577808
 20
181.6993714418823
 30
0.0
 10
77.19211470396687
 20
181.7345143441295
 30
0.0
 10
77.38346626663684
 20
181.7472348104809
 30
0.0
 10
77.57190027764992
 20
181.737739305577
 30
0.0
 10
77.75173435202973
 20
181.7061635701892
 30
0.0
 10
77.92511425335557
 20
181.6519292119593
 30
0.0
 10
78.08018898845626
 20
181.5799683038809
 30
0.0
 10
78.20683510068434
 20
181.5009344296608
 30
0.0
 10
78.30434488538953
 20
181.4259368283505
 30
0.0
 10
78.38478931054155
 20
181.3534942961441
 30
0.0
 10
78.4561922404801
 20
181.2787940110719
 30
0.0
 10
78.52077302752807
 20
181.2006391536071
 30
0.0
 10
78.57975616905895
 20
181.1188739922683
 30
0.0
 10
78.63233124887334
 20
181.034270714242
 30
0.0
 10
78.68121808589913
 20
180.9436765173321
 30
0.0
 10
78.70814527028088
 20
180.8824274806985
 30
0.0
 10
78.72234602618795
 20
180.8501261815123
 30
0.0
 11
75.65655931726468
 21
180.9764822270569
 31
0.0
 11
75.92629578187882
 21
181.1827866716318
 31
0.0
 11
76.20298607160822
 21
181.364125429134
 31
0.0
 11
76.50907938501226
 21
181.5269114496067
 31
0.0
 11
76.79234362119354
 21
181.6397015569274
 31
0.0
 11
76.99988500570586
 21
181.6975264449314
 31
0.0
 11
77.19223233343331
 21
181.7309770267766
 31
0.0
 11
77.38803771190376
 21
181.7435755852289
 31
0.0
 11
77.57038644283858
 21
181.7340866123641
 31
0.0
 11
77.75347414150153
 21
181.7016963597411
 31
0.0
 11
77.92302595924565
 21
181.6485324728649
 31
0.0
 11
78.08618640379191
 21
181.5727871482794
 31
0.0
 11
78.21664198771686
 21
181.4914168286472
 31
0.0
 11
78.30642325420271
 21
181.4223941692967
 31
0.0
 11
78.38196934924616
 21
181.3543913336185
 31
0.0
 11
78.45771761161151
 21
181.2751862809638
 31
0.0
 11
78.52045494883549
 21
181.199310350782
 31
0.0
 11
78.57654949600757
 21
181.1215484103852
 31
0.0
 11
78.63362070179193
 21
181.0299759876052
 31
0.0
 11
78.6783910803224
 21
180.9463802757136
 31
0.0
 11
78.72234602618795
 21
180.8501261815123
 31
0.0
  0
SPLINE
  5
173
330
1F
100
AcDbEntity
  8
0
  6
Continuous
 62
     7
100
AcDbSpline
210
0.0
220
0.0
230
1.0
 70
     8
 71
     3
 72
    72
 73
    68
 74
    66
 42
0.000000001
 43
0.0000000001
 44
0.00000001
 40
0.0
 40
0.0
 40
0.0
 40
0.0
 40
0.1064429264794626
 40
0.2140581046725836
 40
0.3227794831747856
 40
0.4325398559239964
 40
0.5432710314354742
 40
0.6549039876710396
 40
0.7673690151208654
 40
0.8805958499720931
 40
0.9945137990097941
 40
1.109051857723317
 40
1.22413882295176
 40
1.339703401285445
 40
1.453799272094194
 40
1.56832075176926
 40
1.683066203750432
 40
1.797834312124704
 40
1.912424190201014
 40
2.026635496532787
 40
2.140268561473781
 40
2.253124527758271
 40
2.365005509178221
 40
2.475714772221691
 40
2.547296565142891
 40
2.619624593769952
 40
2.692436195319897
 40
2.765469356634989
 40
2.838462829838582
 40
2.911156273765372
 40
2.939566476637038
 40
2.969232620599159
 40
3.000015746822397
 40
3.031777044287915
 40
3.064377871460358
 40
3.097679781837535
 40
3.131544554311274
 40
3.16583422951659
 40
3.200411153674228
 40
3.235138031875435
 40
3.252533144099544
 40
3.270875552155588
 40
3.29003459805427
 40
3.309879776096955
 40
3.330280761147113
 40
3.351107443549738
 40
3.362834385257973
 40
3.375753910927925
 40
3.389672096825166
 40
3.40439520927087
 40
3.419729754415787
 40
3.435482544770677
 40
3.440190062018714
 40
3.446117547338225
 40
3.453052844625617
 40
3.46078389639687
 40
3.469098779417194
 40
3.477785756770193
 40
3.486633357350655
 40
3.488879058717686
 40
3.491949115699091
 40
3.49556821624241
 40
3.499461159978213
 40
3.501292540984188
 40
3.502667767617782
 40
3.503201831430093
 40
3.503735895045672
 40
3.503735895045672
 40
3.503735895045672
 40
3.503735895045672
 10
56.85644837387014
 20
157.988864885634
 30
0.0
 10
56.82096734577592
 20
157.9889353278968
 30
0.0
 10
56.74961453848541
 20
157.9890770027902
 30
0.0
 10
56.64202573764737
 20
157.9901509193506
 30
0.0
 10
56.53333851907545
 20
157.991769427311
 30
0.0
 10
56.42362184723019
 20
157.9939355523038
 30
0.0
 10
56.31294467314633
 20
157.9965649218178
 30
0.0
 10
56.20137596177186
 20
157.999596926481
 30
0.0
 10
56.08898468281515
 20
158.0029644990493
 30
0.0
 10
55.97583981175989
 20
158.0066023216791
 30
0.0
 10
55.86201032831649
 20
158.0104446001616
 30
0.0
 10
55.74756521557742
 20
158.0144256646196
 30
0.0
 10
55.63257345955988
 20
158.0184798171433
 30
0.0
 10
55.51772867478231
 20
158.0225193646043
 30
0.0
 10
55.4030697745503
 20
158.0264811054805
 30
0.0
 10
55.28867923764751
 20
158.0303011955359
 30
0.0
 10
55.17405837850169
 20
158.0339341889466
 30
0.0
 10
55.05940681563068
 20
158.03731053874
 30
0.0
 10
54.94492416242477
 20
158.0403606940766
 30
0.0
 10
54.8308100245218
 20
158.0430151134132
 30
0.0
 10
54.71726400081788
 20
158.0452042585693
 30
0.0
 10
54.6044856681895
 20
158.0468586213092
 30
0.0
 10
54.49267462453062
 20
158.0479086409745
 30
0.0
 10
54.39461712721152
 20
158.0482422049602
 30
0.0
 10
54.30974402624773
 20
158.0480553391296
 30
0.0
 10
54.23750502516991
 20
158.0475470225775
 30
0.0
 10
54.16478594637504
 20
158.0466476864965
 30
0.0
 10
54.09185153534021
 20
158.045317081385
 30
0.0
 10
54.01896658014159
 20
158.0435150405438
 30
0.0
 10
53.96096305673099
 20
158.0416657947268
 30
0.0
 10
53.91740353749687
 20
158.0400362810049
 30
0.0
 10
53.887808194852
 20
158.0388307160552
 30
0.0
 10
53.85710147633681
 20
158.0374682884203
 30
0.0
 10
53.8254232721009
 20
158.0359374060975
 30
0.0
 10
53.79291347598434
 20
158.0342264723756
 30
0.0
 10
53.75971197616757
 20
158.0323238972512
 30
0.0
 10
53.72595865813821
 20
158.0302180953457
 30
0.0
 10
53.69179339689885
 20
158.0278974936854
 30
0.0
 10
53.65735607830766
 20
158.0253505141599
 30
0.0
 10
53.62854950868562
 20
158.0230299066849
 30
0.0
 10
53.60514769010402
 20
158.0210175929807
 30
0.0
 10
53.58692230271446
 20
158.0193789040082
 30
0.0
 10
53.56789105231653
 20
158.0175850242747
 30
0.0
 10
53.54818569531223
 20
158.0156328508415
 30
0.0
 10
53.52793799120663
 20
158.0135193099313
 30
0.0
 10
53.51039268475176
 20
158.0115845616857
 30
0.0
 10
53.49533475944105
 20
158.0098478478015
 30
0.0
 10
53.48257049631607
 20
158.008323807916
 30
0.0
 10
53.46882230877162
 20
158.0066175365484
 30
0.0
 10
53.45428505106889
 20
158.0047345913628
 30
0.0
 10
53.43915354874665
 20
158.002680751039
 30
0.0
 10
53.42734183187869
 20
158.0009925692155
 30
0.0
 10
53.41864090696014
 20
157.9997032246512
 30
0.0
 10
53.41284990946296
 20
157.998827897874
 30
0.0
 10
53.40606622619076
 20
157.9977768065506
 30
0.0
 10
53.39850144769026
 20
157.9965699572249
 30
0.0
 10
53.39036716067848
 20
157.9952272967232
 30
0.0
 10
53.38187492946543
 20
157.9937688684768
 30
0.0
 10
53.37538557979144
 20
157.9926014100311
 30
0.0
 10
53.37074428905558
 20
157.9917368724943
 30
0.0
 10
53.3678181895605
 20
157.9911817305532
 30
0.0
 10
53.36435568368583
 20
157.9905083254752
 30
0.0
 10
53.36130224204215
 20
157.989894594179
 30
0.0
 10
53.35898524372945
 20
157.9894129698031
 30
0.0
 10
53.35776570068553
 20
157.9891532295471
 30
0.0
 10
53.35696983586431
 20
157.9889802191163
 30
0.0
 10
53.3566221955498
 20
157.9889033254103
 30
0.0
 10
53.35644837386548
 20
157.988864885634
 30
0.0
 11
56.85644837387014
 21
157.988864885634
 31
0.0
 11
56.750006032002
 21
157.9892172880699
 31
0.0
 11
56.64239566472058
 21
157.9902348178798
 31
0.0
 11
56.53368631018243
 21
157.9918517133192
 31
0.0
 11
56.42394700654417
 21
157.994002212644
 31
0.0
 11
56.31324679196236
 21
157.9966205541099
 31
0.0
 11
56.20165470459359
 21
157.9996409759727
 31
0.0
 11
56.08923978259444
 21
158.0029977164879
 31
0.0
 11
55.97607106412151
 21
158.0066250139115
 31
0.0
 11
55.86221758733132
 21
158.010457106499
 31
0.0
 11
55.74774839038052
 21
158.0144282325063
 31
0.0
 11
55.63273251142566
 21
158.018472630189
 31
0.0
 11
55.51723898862332
 21
158.0225245378029
 31
0.0
 11
55.40321081252787
 21
158.026454269513
 31
0.0
 11
55.28875279655579
 21
158.0302663406256
 31
0.0
 11
55.17406460904957
 21
158.0338910332215
 31
0.0
 11
55.05934591835177
 21
158.0372586293817
 31
0.0
 11
54.94479639280488
 21
158.0402994111871
 31
0.0
 11
54.83061570075142
 21
158.0429436607185
 31
0.0
 11
54.71700351053388
 21
158.045121660057
 31
0.0
 11
54.60415949049483
 21
158.0467636912834
 31
0.0
 11
54.49228330897674
 21
158.0478000364785
 31
0.0
 11
54.38157463432214
 21
158.0481609777235
 31
0.0
 11
54.30999302581179
 21
158.0479984961721
 31
0.0
 11
54.23766682632856
 21
158.0474841104633
 31
0.0
 11
54.16486087044736
 21
158.0465774089444
 31
0.0
 11
54.09183999274309
 21
158.0452379799628
 31
0.0
 11
54.01886902779064
 21
158.0434254118655
 31
0.0
 11
53.94621281016492
 21
158.0410992930001
 31
0.0
 11
53.91782249138917
 21
158.0400365480631
 31
0.0
 11
53.88818096365814
 21
158.0388282719779
 31
0.0
 11
53.85742813651783
 21
158.0374628113736
 31
0.0
 11
53.82570391951425
 21
158.0359285128792
 31
0.0
 11
53.79314822219342
 21
158.034213723124
 31
0.0
 11
53.75990095410135
 21
158.0323067887368
 31
0.0
 11
53.72610202478405
 21
158.030196056347
 31
0.0
 11
53.69189134378753
 21
158.0278698725835
 31
0.0
 11
53.65740882065777
 21
158.0253165840755
 31
0.0
 11
53.62279436494083
 21
158.0225245374521
 31
0.0
 11
53.60546325686025
 21
158.0210336914493
 31
0.0
 11
53.58719460505041
 21
158.0193904342794
 31
0.0
 11
53.56812019175889
 21
158.0175916021367
 31
0.0
 11
53.54837179923337
 21
158.0156340312162
 31
0.0
 11
53.52808120972139
 21
158.0135145577121
 31
0.0
 11
53.50738020547061
 21
158.0112300178193
 31
0.0
 11
53.49573053910841
 21
158.0098859808613
 31
0.0
 11
53.48290219943554
 21
158.0083537130645
 31
0.0
 11
53.46909008681914
 21
158.0066386493556
 31
0.0
 11
53.45448910162635
 21
158.0047462246613
 31
0.0
 11
53.43929414422433
 21
158.002681873908
 31
0.0
 11
53.42370011498025
 21
158.0004510320226
 31
0.0
 11
53.41904347032384
 21
157.9997608297725
 31
0.0
 11
53.41318258595062
 21
157.9988747617656
 31
0.0
 11
53.40632911217843
 21
157.9978125726933
 31
0.0
 11
53.39869469932507
 21
157.996594007247
 31
0.0
 11
53.3904909977084
 21
157.995238810118
 31
0.0
 11
53.38192965764622
 21
157.9937667259976
 31
0.0
 11
53.37322232945638
 21
157.9921974995773
 31
0.0
 11
53.37101462411881
 21
157.9917861460183
 31
0.0
 11
53.36799840591694
 21
157.9912137147276
 31
0.0
 11
53.36444599093571
 21
157.9905221682964
 31
0.0
 11
53.36062969525989
 21
157.9897534693155
 31
0.0
 11
53.35883672745859
 21
157.9893803435951
 31
0.0
 11
53.35749175824213
 21
157.9890934533253
 31
0.0
 11
53.35696990731873
 21
157.9889798940863
 31
0.0
 11
53.35644837386548
 21
157.988864885634
 31
0.0
  0
SPLINE
  5
174
330
1F
100
AcDbEntity
  8
0
  6
Continuous
 62
     7
100
AcDbSpline
210
0.0
220
0.0
230
1.0
 70
     8
 71
     3
 72
    15
 73
    11
 74
     9
 42
0.000000001
 43
0.0000000001
 44
0.00000001
 40
0.0
 40
0.0
 40
0.0
 40
0.0
 40
0.9272761601423674
 40
1.915450697100503
 40
3.189874861199346
 40
4.672338987982298
 40
6.801393175812915
 40
9.355217756920425
 40
13.53773047263138
 40
18.68671153016445
 40
18.68671153016445
 40
18.68671153016445
 40
18.68671153016445
 10
86.48689758568474
 20
195.3539457645795
 30
0.0
 10
86.54453616008831
 20
195.0486771131615
 30
0.0
 10
86.66359867914532
 20
194.4180914506117
 30
0.0
 10
86.53458280221662
 20
193.3483978884739
 30
0.0
 10
86.1456198679866
 20
192.1567242534824
 30
0.0
 10
85.379357750516
 20
190.7121712725951
 30
0.0
 10
84.17892924026853
 20
189.0381316427894
 30
0.0
 10
82.22152147362785
 20
186.8200476495523
 30
0.0
 10
79.36249607864274
 20
184.0704214195048
 30
0.0
 10
76.97431984525795
 20
182.0766280794671
 30
0.0
 10
75.65655931726468
 20
180.9764822270569
 30
0.0
 11
86.48689758568474
 21
195.3539457645795
 31
0.0
 11
86.61375442137296
 21
194.4353879623898
 31
0.0
 11
86.51879184229512
 21
193.4517869125102
 31
0.0
 11
86.13602101956417
 21
192.2362033315244
 31
0.0
 11
85.4577139713146
 21
190.9180229824353
 31
0.0
 11
84.23638399433653
 21
189.1741121993839
 31
0.0
 11
82.56199246767227
 21
187.2457883146381
 31
0.0
 11
79.56615720786294
 21
184.3271612895445
 31
0.0
 11
75.65655931726468
 21
180.9764822270569
 31
0.0
  0
DIMENSION
  5
180
330
1F
100
AcDbEntity
  8
1
100
AcDbDimension
  2
*D3
 10
133.368162071007
 20
138.9888648865113
 30
0.0
 11
150.118162071007
 21
142.6388648865113
 31
0.0
 70
    32
  1
<>
 71
     5
 42
-1.0
 53
0.00013888888889
  3
ME10_DIM_10
100
AcDbAlignedDimension
 13
166.868162071007
 23
162.3976348618867
 33
0.0
 14
133.368162071007
 24
162.3976348618867
 34
0.0
100
AcDbRotatedDimension
  0
DIMENSION
  5
18B
330
1F
100
AcDbEntity
  8
1
100
AcDbDimension
  2
*D4
 10
53.35644837386548
 20
138.9888648865113
 30
0.0
 11
66.85644837386548
 21
142.4888648865113
 31
0.0
 70
    32
  1
<>
 71
     5
 42
-1.0
 53
0.00013888888889
  3
ME10_DIM_11
100
AcDbAlignedDimension
 13
80.35644837386548
 23
153.9888648865114
 33
0.0
 14
53.35644837386548
 24
153.9888648865114
 34
0.0
100
AcDbRotatedDimension
  0
DIMENSION
  5
196
330
1F
100
AcDbEntity
  8
1
100
AcDbDimension
  2
*D5
 10
176.868162071007
 20
153.9888648865114
 30
0.0
 11
173.368162071007
 21
180.4669602374756
 31
0.0
 70
    32
  1
53
 71
     5
 42
-1.0
 53
90.0
  3
ME10_DIM_12
100
AcDbAlignedDimension
 13
150.118162071007
 23
206.9450555884398
 33
0.0
 14
163.618162071007
 24
153.9888648865114
 34
0.0
 50
90.0
100
AcDbRotatedDimension
  0
DIMENSION
  5
1A1
330
1F
100
AcDbEntity
  8
1
100
AcDbDimension
  2
*D6
 10
96.18633523083363
 20
207.2703877741381
 30
0.0
 11
101.896447028768
 21
199.4829219953953
 31
0.0
 70
    32
  1
PG11
 71
     5
 42
-1.0
 53
-75.00000000000048
  3
ME10_DIM_13
100
AcDbAlignedDimension
 13
91.23925239374472
 23
187.3098496756689
 33
0.0
 14
86.54032134383164
 24
204.6857461429366
 34
0.0
 50
-75.00000000000048
100
AcDbRotatedDimension
  0
ENDSEC
  0
SECTION
  2
OBJECTS
  0
DICTIONARY
  5
C
330
0
100
AcDbDictionary
281
     1
  3
ACAD_GROUP
350
D
  3
ACAD_LAYOUT
350
1A
  3
ACAD_MATERIAL
350
3B
  3
ACAD_MLEADERSTYLE
350
1A4
  3
ACAD_MLINESTYLE
350
17
  3
ACAD_PLOTSETTINGS
350
19
  3
ACAD_PLOTSTYLENAME
350
E
  3
ACAD_VISUALSTYLE
350
2A
  3
AcDbVariableDictionary
350
1A2
  0
DICTIONARY
  5
D
102
{ACAD_REACTORS
330
C
102
}
330
C
100
AcDbDictionary
281
     1
  0
DICTIONARY
  5
1A
102
{ACAD_REACTORS
330
C
102
}
330
C
100
AcDbDictionary
281
     1
  3
Layout1
350
1E
  3
Layout2
350
26
  3
Model
350
22
  0
DICTIONARY
  5
3B
102
{ACAD_REACTORS
330
C
102
}
330
C
100
AcDbDictionary
281
     1
  3
ByBlock
350
3D
  3
ByLayer
350
3C
  3
Global
350
3E
  0
DICTIONARY
  5
1A4
102
{ACAD_REACTORS
330
C
102
}
330
C
100
AcDbDictionary
281
     1
  0
DICTIONARY
  5
17
102
{ACAD_REACTORS
330
C
102
}
330
C
100
AcDbDictionary
281
     1
  3
Standard
350
18
  0
DICTIONARY
  5
19
102
{ACAD_REACTORS
330
C
102
}
330
C
100
AcDbDictionary
281
     1
  0
ACDBDICTIONARYWDFLT
  5
E
102
{ACAD_REACTORS
330
C
102
}
330
C
100
AcDbDictionary
281
     1
  3
Normal
350
F
100
AcDbDictionaryWithDefault
340
F
  0
DICTIONARY
  5
2A
102
{ACAD_REACTORS
330
C
102
}
330
C
100
AcDbDictionary
281
     1
  3
2dWireframe
350
2F
  3
3D Hidden
350
31
  3
3dWireframe
350
30
  3
Basic
350
32
  3
Brighten
350
36
  3
ColorChange
350
3A
  3
Conceptual
350
34
  3
Dim
350
35
  3
Facepattern
350
39
  3
Flat
350
2B
  3
FlatWithEdges
350
2C
  3
Gouraud
350
2D
  3
GouraudWithEdges
350
2E
  3
Linepattern
350
38
  3
Realistic
350
33
  3
Thicken
350
37
  0
DICTIONARY
  5
1A2
102
{ACAD_REACTORS
330
C
102
}
330
C
100
AcDbDictionary
281
     1
  3
DIMASSOC
350
1A5
  3
HIDETEXT
350
1A6
  0
LAYOUT
  5
1E
102
{ACAD_REACTORS
330
1A
102
}
330
1A
100
AcDbPlotSettings
  1

  2
none_device
  4

  6

 40
0.0
 41
0.0
 42
0.0
 43
0.0
 44
0.0
 45
0.0
 46
0.0
 47
0.0
 48
0.0
 49
0.0
140
0.0
141
0.0
142
1.0
143
1.0
 70
   688
 72
     0
 73
     0
 74
     5
  7

 75
    16
147
1.0
148
0.0
149
0.0
100
AcDbLayout
  1
Layout1
 70
     1
 71
     1
 10
0.0
 20
0.0
 11
12.0
 21
9.0
 12
0.0
 22
0.0
 32
0.0
 14
1.00000000000000E+20
 24
1.00000000000000E+20
 34
1.00000000000000E+20
 15
-1.00000000000000E+20
 25
-1.00000000000000E+20
 35
-1.00000000000000E+20
146
0.0
 13
0.0
 23
0.0
 33
0.0
 16
1.0
 26
0.0
 36
0.0
 17
0.0
 27
1.0
 37
0.0
 76
     0
330
1B
  0
LAYOUT
  5
26
102
{ACAD_REACTORS
330
1A
102
}
330
1A
100
AcDbPlotSettings
  1

  2
none_device
  4

  6

 40
0.0
 41
0.0
 42
0.0
 43
0.0
 44
0.0
 45
0.0
 46
0.0
 47
0.0
 48
0.0
 49
0.0
140
0.0
141
0.0
142
1.0
143
1.0
 70
   688
 72
     0
 73
     0
 74
     5
  7

 75
    16
147
1.0
148
0.0
149
0.0
100
AcDbLayout
  1
Layout2
 70
     1
 71
     2
 10
0.0
 20
0.0
 11
0.0
 21
0.0
 12
0.0
 22
0.0
 32
0.0
 14
0.0
 24
0.0
 34
0.0
 15
0.0
 25
0.0
 35
0.0
146
0.0
 13
0.0
 23
0.0
 33
0.0
 16
1.0
 26
0.0
 36
0.0
 17
0.0
 27
1.0
 37
0.0
 76
     0
330
23
  0
LAYOUT
  5
22
102
{ACAD_REACTORS
330
1A
102
}
330
1A
100
AcDbPlotSettings
  1

  2
none_device
  4

  6

 40
0.0
 41
0.0
 42
0.0
 43
0.0
 44
0.0
 45
0.0
 46
0.0
 47
0.0
 48
0.0
 49
0.0
140
0.0
141
0.0
142
1.0
143
1.0
 70
  1712
 72
     0
 73
     0
 74
     0
  7

 75
     0
147
1.0
148
0.0
149
0.0
100
AcDbLayout
  1
Model
 70
     1
 71
     0
 10
0.0
 20
0.0
 11
12.0
 21
9.0
 12
0.0
 22
0.0
 32
0.0
 14
0.0
 24
0.0
 34
0.0
 15
210.0000000000001
 25
297.0000000000001
 35
0.0
146
0.0
 13
0.0
 23
0.0
 33
0.0
 16
1.0
 26
0.0
 36
0.0
 17
0.0
 27
1.0
 37
0.0
 76
     0
330
1F
331
29
  0
MATERIAL
  5
3D
102
{ACAD_REACTORS
330
3B
102
}
102
{ACAD_XDICTIONARY
360
1C9
102
}
330
3B
100
AcDbMaterial
  1
ByBlock
  0
MATERIAL
  5
3C
102
{ACAD_REACTORS
330
3B
102
}
102
{ACAD_XDICTIONARY
360
1C7
102
}
330
3B
100
AcDbMaterial
  1
ByLayer
  0
MATERIAL
  5
3E
102
{ACAD_REACTORS
330
3B
102
}
102
{ACAD_XDICTIONARY
360
1CB
102
}
330
3B
100
AcDbMaterial
  1
Global
  0
MLINESTYLE
  5
18
102
{ACAD_REACTORS
330
17
102
}
330
17
100
AcDbMlineStyle
  2
Standard
 70
     0
  3

 62
   256
 51
90.0
 52
90.0
 71
     2
 49
0.5
 62
   256
  6
BYLAYER
 49
-0.5
 62
   256
  6
BYLAYER
  0
ACDBPLACEHOLDER
  5
F
102
{ACAD_REACTORS
330
E
102
}
330
E
  0
VISUALSTYLE
  5
2F
102
{ACAD_REACTORS
330
2A
102
}
102
{ACAD_XDICTIONARY
360
1AF
102
}
330
2A
100
AcDbVisualStyle
  2
2dWireframe
 70
     4
 71
     0
 72
     2
 73
     0
 90
        0
 40
-0.6
 41
-30.0
 62
     5
 63
     7
 74
     1
 91
        4
 64
     7
 65
   257
 75
     1
175
     1
 42
1.0
 92
        0
 66
   257
 43
1.0
 76
     1
 77
     6
 78
     2
 67
     7
 79
     5
170
     0
171
     0
290
     0
174
     0
 93
        1
 44
0.0
173
     0
291
     0
 45
0.0
1001
ACAD
1000
AcDbSavedByObjectVersion
1070
     0
  0
VISUALSTYLE
  5
31
102
{ACAD_REACTORS
330
2A
102
}
102
{ACAD_XDICTIONARY
360
1B3
102
}
330
2A
100
AcDbVisualStyle
  2
3D Hidden
 70
     6
 71
     1
 72
     2
 73
     2
 90
        0
 40
-0.6
 41
-30.0
 62
     5
 63
     7
 74
     2
 91
        2
 64
     7
 65
   257
 75
     2
175
     1
 42
40.0
 92
        0
 66
   257
 43
1.0
 76
     1
 77
     6
 78
     2
 67
     7
 79
     3
170
     0
171
     0
290
     0
174
     0
 93
        1
 44
0.0
173
     0
291
     0
 45
0.0
1001
ACAD
1000
AcDbSavedByObjectVersion
1070
     0
  0
VISUALSTYLE
  5
30
102
{ACAD_REACTORS
330
2A
102
}
102
{ACAD_XDICTIONARY
360
1B1
102
}
330
2A
100
AcDbVisualStyle
  2
3dWireframe
 70
     5
 71
     0
 72
     2
 73
     0
 90
        0
 40
-0.6
 41
-30.0
 62
     5
 63
     7
 74
     1
 91
        4
 64
     7
 65
   257
 75
     1
175
     1
 42
1.0
 92
        0
 66
   257
 43
1.0
 76
     1
 77
     6
 78
     2
 67
     7
 79
     5
170
     0
171
     0
290
     0
174
     0
 93
        1
 44
0.0
173
     0
291
     0
 45
0.0
1001
ACAD
1000
AcDbSavedByObjectVersion
1070
     0
  0
VISUALSTYLE
  5
32
102
{ACAD_REACTORS
330
2A
102
}
102
{ACAD_XDICTIONARY
360
1B5
102
}
330
2A
100
AcDbVisualStyle
  2
Basic
 70
     7
 71
     1
 72
     0
 73
     1
 90
        0
 40
-0.6
 41
-30.0
 62
     5
 63
     7
 74
     0
 91
        4
 64
     7
 65
   257
 75
     1
175
     1
 42
1.0
 92
        8
 66
     7
 43
1.0
 76
     1
 77
     6
 78
     2
 67
     7
 79
     5
170
     0
171
     0
290
     0
174
     0
 93
        1
 44
0.0
173
     0
291
     1
 45
0.0
1001
ACAD
1000
AcDbSavedByObjectVersion
1070
     0
  0
VISUALSTYLE
  5
36
102
{ACAD_REACTORS
330
2A
102
}
102
{ACAD_XDICTIONARY
360
1BD
102
}
330
2A
100
AcDbVisualStyle
  2
Brighten
 70
    12
 71
     2
 72
     2
 73
     0
 90
        0
 40
-0.6
 41
-30.0
 62
     5
 63
     7
 74
     1
 91
        4
 64
     7
 65
   257
 75
     1
175
     1
 42
1.0
 92
        8
 66
     7
 43
1.0
 76
     1
 77
     6
 78
     2
 67
     7
 79
     5
170
     0
171
     0
290
     0
174
     0
 93
        1
 44
50.0
173
     0
291
     1
 45
0.0
1001
ACAD
1000
AcDbSavedByObjectVersion
1070
     0
  0
VISUALSTYLE
  5
3A
102
{ACAD_REACTORS
330
2A
102
}
102
{ACAD_XDICTIONARY
360
1C5
102
}
330
2A
100
AcDbVisualStyle
  2
ColorChange
 70
    16
 71
     2
 72
     2
 73
     3
 90
        0
 40
-0.6
 41
-30.0
 62
     5
 63
     8
 74
     1
 91
        4
 64
     7
 65
   257
 75
     1
175
     1
 42
1.0
 92
        8
 66
     8
 43
1.0
 76
     1
 77
     6
 78
     2
 67
     7
 79
     5
170
     0
171
     0
290
     0
174
     0
 93
        1
 44
0.0
173
     0
291
     1
 45
0.0
1001
ACAD
1000
AcDbSavedByObjectVersion
1070
     0
  0
VISUALSTYLE
  5
34
102
{ACAD_REACTORS
330
2A
102
}
102
{ACAD_XDICTIONARY
360
1B9
102
}
330
2A
100
AcDbVisualStyle
  2
Conceptual
 70
     9
 71
     3
 72
     2
 73
     0
 90
        0
 40
-0.6
 41
-30.0
 62
     5
 63
     7
 74
     2
 91
        2
 64
     7
 65
   257
 75
     1
175
     1
 42
40.0
 92
        8
 66
     7
 43
1.0
 76
     1
 77
     6
 78
     2
 67
     7
 79
     3
170
     0
171
     0
290
     0
174
     0
 93
        1
 44
0.0
173
     0
291
     0
 45
0.0
1001
ACAD
1000
AcDbSavedByObjectVersion
1070
     0
  0
VISUALSTYLE
  5
35
102
{ACAD_REACTORS
330
2A
102
}
102
{ACAD_XDICTIONARY
360
1BB
102
}
330
2A
100
AcDbVisualStyle
  2
Dim
 70
    11
 71
     2
 72
     2
 73
     0
 90
        0
 40
-0.6
 41
-30.0
 62
     5
 63
     7
 74
     1
 91
        4
 64
     7
 65
   257
 75
     1
175
     1
 42
1.0
 92
        8
 66
     7
 43
1.0
 76
     1
 77
     6
 78
     2
 67
     7
 79
     5
170
     0
171
     0
290
     0
174
     0
 93
        1
 44
-50.0
173
     0
291
     1
 45
0.0
1001
ACAD
1000
AcDbSavedByObjectVersion
1070
     0
  0
VISUALSTYLE
  5
39
102
{ACAD_REACTORS
330
2A
102
}
102
{ACAD_XDICTIONARY
360
1C3
102
}
330
2A
100
AcDbVisualStyle
  2
Facepattern
 70
    15
 71
     2
 72
     2
 73
     0
 90
        0
 40
-0.6
 41
-30.0
 62
     5
 63
     7
 74
     1
 91
        4
 64
     7
 65
   257
 75
     1
175
     1
 42
1.0
 92
        8
 66
     7
 43
1.0
 76
     1
 77
     6
 78
     2
 67
     7
 79
     5
170
     0
171
     0
290
     0
174
     0
 93
        1
 44
0.0
173
     0
291
     1
 45
0.0
1001
ACAD
1000
AcDbSavedByObjectVersion
1070
     0
  0
VISUALSTYLE
  5
2B
102
{ACAD_REACTORS
330
2A
102
}
102
{ACAD_XDICTIONARY
360
1A7
102
}
330
2A
100
AcDbVisualStyle
  2
Flat
 70
     0
 71
     2
 72
     1
 73
     1
 90
        2
 40
-0.6
 41
30.0
 62
     5
 63
     7
 74
     0
 91
        4
 64
     7
 65
   257
 75
     1
175
     1
 42
1.0
 92
        8
 66
     7
 43
1.0
 76
     1
 77
     6
 78
     2
 67
     7
 79
     5
170
     0
171
     0
290
     0
174
     0
 93
       13
 44
0.0
173
     0
291
     1
 45
0.0
1001
ACAD
1000
AcDbSavedByObjectVersion
1070
     0
  0
VISUALSTYLE
  5
2C
102
{ACAD_REACTORS
330
2A
102
}
102
{ACAD_XDICTIONARY
360
1A9
102
}
330
2A
100
AcDbVisualStyle
  2
FlatWithEdges
 70
     1
 71
     2
 72
     1
 73
     1
 90
        2
 40
-0.6
 41
30.0
 62
     5
 63
     7
 74
     1
 91
        4
 64
     7
 65
   257
 75
     1
175
     1
 42
1.0
 92
        0
 66
   257
 43
1.0
 76
     1
 77
     6
 78
     2
 67
     7
 79
     5
170
     0
171
     0
290
     0
174
     0
 93
       13
 44
0.0
173
     0
291
     1
 45
0.0
1001
ACAD
1000
AcDbSavedByObjectVersion
1070
     0
  0
VISUALSTYLE
  5
2D
102
{ACAD_REACTORS
330
2A
102
}
102
{ACAD_XDICTIONARY
360
1AB
102
}
330
2A
100
AcDbVisualStyle
  2
Gouraud
 70
     2
 71
     2
 72
     2
 73
     1
 90
        2
 40
-0.6
 41
30.0
 62
     5
 63
     7
 74
     0
 91
        4
 64
     7
 65
   257
 75
     1
175
     1
 42
1.0
 92
        0
 66
     7
 43
1.0
 76
     1
 77
     6
 78
     2
 67
     7
 79
     5
170
     0
171
     0
290
     0
174
     0
 93
       13
 44
0.0
173
     0
291
     1
 45
0.0
1001
ACAD
1000
AcDbSavedByObjectVersion
1070
     0
  0
VISUALSTYLE
  5
2E
102
{ACAD_REACTORS
330
2A
102
}
102
{ACAD_XDICTIONARY
360
1AD
102
}
330
2A
100
AcDbVisualStyle
  2
GouraudWithEdges
 70
     3
 71
     2
 72
     2
 73
     1
 90
        2
 40
-0.6
 41
30.0
 62
     5
 63
     7
 74
     1
 91
        4
 64
     7
 65
   257
 75
     1
175
     1
 42
1.0
 92
        0
 66
   257
 43
1.0
 76
     1
 77
     6
 78
     2
 67
     7
 79
     5
170
     0
171
     0
290
     0
174
     0
 93
       13
 44
0.0
173
     0
291
     1
 45
0.0
1001
ACAD
1000
AcDbSavedByObjectVersion
1070
     0
  0
VISUALSTYLE
  5
38
102
{ACAD_REACTORS
330
2A
102
}
102
{ACAD_XDICTIONARY
360
1C1
102
}
330
2A
100
AcDbVisualStyle
  2
Linepattern
 70
    14
 71
     2
 72
     2
 73
     0
 90
        0
 40
-0.6
 41
-30.0
 62
     5
 63
     7
 74
     1
 91
        4
 64
     7
 65
   257
 75
     7
175
     7
 42
1.0
 92
        8
 66
     7
 43
1.0
 76
     1
 77
     6
 78
     2
 67
     7
 79
     5
170
     0
171
     0
290
     0
174
     0
 93
        1
 44
0.0
173
     0
291
     1
 45
0.0
1001
ACAD
1000
AcDbSavedByObjectVersion
1070
     0
  0
VISUALSTYLE
  5
33
102
{ACAD_REACTORS
330
2A
102
}
102
{ACAD_XDICTIONARY
360
1B7
102
}
330
2A
100
AcDbVisualStyle
  2
Realistic
 70
     8
 71
     2
 72
     2
 73
     0
 90
        0
 40
-0.6
 41
-30.0
 62
     5
 63
     7
 74
     1
 91
        0
 64
     7
 65
   257
 75
     1
175
     1
 42
1.0
 92
        8
 66
     8
 43
1.0
 76
     1
 77
     6
 78
     2
 67
     7
 79
     5
170
     0
171
     0
290
     0
174
     0
 93
       13
 44
0.0
173
     0
291
     0
 45
0.0
1001
ACAD
1000
AcDbSavedByObjectVersion
1070
     0
  0
VISUALSTYLE
  5
37
102
{ACAD_REACTORS
330
2A
102
}
102
{ACAD_XDICTIONARY
360
1BF
102
}
330
2A
100
AcDbVisualStyle
  2
Thicken
 70
    13
 71
     2
 72
     2
 73
     0
 90
        0
 40
-0.6
 41
-30.0
 62
     5
 63
     7
 74
     1
 91
        4
 64
     7
 65
   257
 75
     1
175
     1
 42
1.0
 92
       12
 66
     7
 43
1.0
 76
     1
 77
     6
 78
     2
 67
     7
 79
     5
170
     0
171
     0
290
     0
174
     0
 93
        1
 44
0.0
173
     0
291
     1
 45
0.0
1001
ACAD
1000
AcDbSavedByObjectVersion
1070
     0
  0
DICTIONARYVAR
  5
1A5
102
{ACAD_REACTORS
330
1A2
102
}
330
1A2
100
DictionaryVariables
280
     0
  1
2
  0
DICTIONARYVAR
  5
1A6
102
{ACAD_REACTORS
330
1A2
102
}
330
1A2
100
DictionaryVariables
280
     0
  1
1
  0
DICTIONARY
  5
1C9
330
3D
100
AcDbDictionary
280
     1
281
     1
  3
ACAD_XREC_ROUNDTRIP
360
1CA
  0
DICTIONARY
  5
1C7
330
3C
100
AcDbDictionary
280
     1
281
     1
  3
ACAD_XREC_ROUNDTRIP
360
1C8
  0
DICTIONARY
  5
1CB
330
3E
100
AcDbDictionary
280
     1
281
     1
  3
ACAD_XREC_ROUNDTRIP
360
1CC
  0
DICTIONARY
  5
1AF
330
2F
100
AcDbDictionary
280
     1
281
     1
  3
ACAD_XREC_ROUNDTRIP
360
1B0
  0
DICTIONARY
  5
1B3
330
31
100
AcDbDictionary
280
     1
281
     1
  3
ACAD_XREC_ROUNDTRIP
360
1B4
  0
DICTIONARY
  5
1B1
330
30
100
AcDbDictionary
280
     1
281
     1
  3
ACAD_XREC_ROUNDTRIP
360
1B2
  0
DICTIONARY
  5
1B5
330
32
100
AcDbDictionary
280
     1
281
     1
  3
ACAD_XREC_ROUNDTRIP
360
1B6
  0
DICTIONARY
  5
1BD
330
36
100
AcDbDictionary
280
     1
281
     1
  3
ACAD_XREC_ROUNDTRIP
360
1BE
  0
DICTIONARY
  5
1C5
330
3A
100
AcDbDictionary
280
     1
281
     1
  3
ACAD_XREC_ROUNDTRIP
360
1C6
  0
DICTIONARY
  5
1B9
330
34
100
AcDbDictionary
280
     1
281
     1
  3
ACAD_XREC_ROUNDTRIP
360
1BA
  0
DICTIONARY
  5
1BB
330
35
100
AcDbDictionary
280
     1
281
     1
  3
ACAD_XREC_ROUNDTRIP
360
1BC
  0
DICTIONARY
  5
1C3
330
39
100
AcDbDictionary
280
     1
281
     1
  3
ACAD_XREC_ROUNDTRIP
360
1C4
  0
DICTIONARY
  5
1A7
330
2B
100
AcDbDictionary
280
     1
281
     1
  3
ACAD_XREC_ROUNDTRIP
360
1A8
  0
DICTIONARY
  5
1A9
330
2C
100
AcDbDictionary
280
     1
281
     1
  3
ACAD_XREC_ROUNDTRIP
360
1AA
  0
DICTIONARY
  5
1AB
330
2D
100
AcDbDictionary
280
     1
281
     1
  3
ACAD_XREC_ROUNDTRIP
360
1AC
  0
DICTIONARY
  5
1AD
330
2E
100
AcDbDictionary
280
     1
281
     1
  3
ACAD_XREC_ROUNDTRIP
360
1AE
  0
DICTIONARY
  5
1C1
330
38
100
AcDbDictionary
280
     1
281
     1
  3
ACAD_XREC_ROUNDTRIP
360
1C2
  0
DICTIONARY
  5
1B7
330
33
100
AcDbDictionary
280
     1
281
     1
  3
ACAD_XREC_ROUNDTRIP
360
1B8
  0
DICTIONARY
  5
1BF
330
37
100
AcDbDictionary
280
     1
281
     1
  3
ACAD_XREC_ROUNDTRIP
360
1C0
  0
XRECORD
  5
1CA
102
{ACAD_REACTORS
330
1C9
102
}
330
1C9
100
AcDbXrecord
280
     1
102
MATERIAL
148
0.0
149
0.0
149
0.0
 93
        0
 94
      127
282
     0
 72
     1
 77
     1
171
     1
175
     1
179
     1
273
     0
  0
XRECORD
  5
1C8
102
{ACAD_REACTORS
330
1C7
102
}
330
1C7
100
AcDbXrecord
280
     1
102
MATERIAL
148
0.0
149
0.0
149
0.0
 93
        0
 94
      127
282
     0
 72
     1
 77
     1
171
     1
175
     1
179
     1
273
     0
  0
XRECORD
  5
1CC
102
{ACAD_REACTORS
330
1CB
102
}
330
1CB
100
AcDbXrecord
280
     1
102
MATERIAL
148
0.0
149
0.0
149
0.0
 93
        0
 94
      127
282
     0
 72
     1
 77
     1
171
     1
175
     1
179
     1
273
     0
  0
XRECORD
  5
1B0
102
{ACAD_REACTORS
330
1AF
102
}
330
1AF
100
AcDbXrecord
280
     1
102
RTVSPropertyOp0
 70
     1
102
RTVSPropertyOp1
 70
     1
102
RTVSPropertyOp2
 70
     1
102
RTVSPropertyOp3
 70
     1
102
RTVSPropertyOp4
 70
     1
102
RTVSPropertyOp5
 70
     1
102
RTVSPropertyOp6
 70
     1
102
RTVSPropertyOp7
 70
     1
102
RTVSPropertyOp8
 70
     1
102
RTVSPropertyOp9
 70
     1
102
RTVSPropertyOp10
 70
     1
102
RTVSPropertyOp11
 70
     1
102
RTVSPropertyOp12
 70
     1
102
RTVSPropertyOp13
 70
     1
102
RTVSPropertyOp14
 70
     1
102
RTVSPropertyOp15
 70
     1
102
RTVSPropertyOp16
 70
     1
102
RTVSPropertyOp17
 70
     1
102
RTVSPropertyOp18
 70
     1
102
RTVSPropertyOp19
 70
     1
102
RTVSPropertyOp20
 70
     1
102
RTVSPropertyOp21
 70
     1
102
RTVSPropertyOp22
 70
     1
102
RTVSPropertyOp23
 70
     1
102
RTVSPropertyOp24
 70
     1
102
RTVSPropertyOp25
 70
     1
102
RTVSPropertyOp26
 70
     1
102
RTVSPropertyOp27
 70
     1
102
RTVSPropertyOp28
 70
     1
102
RTVSPropertyOp29
 70
     1
102
RTVSPropertyOp30
 70
     1
102
RTVSPropertyOp31
 70
     1
102
RTVSPropertyOp32
 70
     1
  0
XRECORD
  5
1B4
102
{ACAD_REACTORS
330
1B3
102
}
330
1B3
100
AcDbXrecord
280
     1
102
RTVSPropertyOp0
 70
     1
102
RTVSPropertyOp1
 70
     1
102
RTVSPropertyOp2
 70
     1
102
RTVSPropertyOp3
 70
     1
102
RTVSPropertyOp4
 70
     1
102
RTVSPropertyOp5
 70
     1
102
RTVSPropertyOp6
 70
     1
102
RTVSPropertyOp7
 70
     1
102
RTVSPropertyOp8
 70
     1
102
RTVSPropertyOp9
 70
     1
102
RTVSPropertyOp10
 70
     1
102
RTVSPropertyOp11
 70
     1
102
RTVSPropertyOp12
 70
     1
102
RTVSPropertyOp13
 70
     1
102
RTVSPropertyOp14
 70
     1
102
RTVSPropertyOp15
 70
     1
102
RTVSPropertyOp16
 70
     1
102
RTVSPropertyOp17
 70
     1
102
RTVSPropertyOp18
 70
     1
102
RTVSPropertyOp19
 70
     1
102
RTVSPropertyOp20
 70
     1
102
RTVSPropertyOp21
 70
     1
102
RTVSPropertyOp22
 70
     1
102
RTVSPropertyOp23
 70
     1
102
RTVSPropertyOp24
 70
     1
102
RTVSPropertyOp25
 70
     1
102
RTVSPropertyOp26
 70
     1
102
RTVSPropertyOp27
 70
     1
102
RTVSPropertyOp28
 70
     1
102
RTVSPropertyOp29
 70
     1
102
RTVSPropertyOp30
 70
     1
102
RTVSPropertyOp31
 70
     1
102
RTVSPropertyOp32
 70
     1
  0
XRECORD
  5
1B2
102
{ACAD_REACTORS
330
1B1
102
}
330
1B1
100
AcDbXrecord
280
     1
102
RTVSPropertyOp0
 70
     1
102
RTVSPropertyOp1
 70
     1
102
RTVSPropertyOp2
 70
     1
102
RTVSPropertyOp3
 70
     1
102
RTVSPropertyOp4
 70
     1
102
RTVSPropertyOp5
 70
     1
102
RTVSPropertyOp6
 70
     1
102
RTVSPropertyOp7
 70
     1
102
RTVSPropertyOp8
 70
     1
102
RTVSPropertyOp9
 70
     1
102
RTVSPropertyOp10
 70
     1
102
RTVSPropertyOp11
 70
     1
102
RTVSPropertyOp12
 70
     1
102
RTVSPropertyOp13
 70
     1
102
RTVSPropertyOp14
 70
     1
102
RTVSPropertyOp15
 70
     1
102
RTVSPropertyOp16
 70
     1
102
RTVSPropertyOp17
 70
     1
102
RTVSPropertyOp18
 70
     1
102
RTVSPropertyOp19
 70
     1
102
RTVSPropertyOp20
 70
     1
102
RTVSPropertyOp21
 70
     1
102
RTVSPropertyOp22
 70
     1
102
RTVSPropertyOp23
 70
     1
102
RTVSPropertyOp24
 70
     1
102
RTVSPropertyOp25
 70
     1
102
RTVSPropertyOp26
 70
     1
102
RTVSPropertyOp27
 70
     1
102
RTVSPropertyOp28
 70
     1
102
RTVSPropertyOp29
 70
     1
102
RTVSPropertyOp30
 70
     1
102
RTVSPropertyOp31
 70
     1
102
RTVSPropertyOp32
 70
     1
  0
XRECORD
  5
1B6
102
{ACAD_REACTORS
330
1B5
102
}
330
1B5
100
AcDbXrecord
280
     1
102
RTVSPropertyOp0
 70
     1
102
RTVSPropertyOp1
 70
     1
102
RTVSPropertyOp2
 70
     1
102
RTVSPropertyOp3
 70
     1
102
RTVSPropertyOp4
 70
     1
102
RTVSPropertyOp5
 70
     1
102
RTVSPropertyOp6
 70
     1
102
RTVSPropertyOp7
 70
     1
102
RTVSPropertyOp8
 70
     1
102
RTVSPropertyOp9
 70
     1
102
RTVSPropertyOp10
 70
     1
102
RTVSPropertyOp11
 70
     1
102
RTVSPropertyOp12
 70
     1
102
RTVSPropertyOp13
 70
     1
102
RTVSPropertyOp14
 70
     1
102
RTVSPropertyOp15
 70
     1
102
RTVSPropertyOp16
 70
     1
102
RTVSPropertyOp17
 70
     1
102
RTVSPropertyOp18
 70
     1
102
RTVSPropertyOp19
 70
     1
102
RTVSPropertyOp20
 70
     1
102
RTVSPropertyOp21
 70
     1
102
RTVSPropertyOp22
 70
     1
102
RTVSPropertyOp23
 70
     1
102
RTVSPropertyOp24
 70
     1
102
RTVSPropertyOp25
 70
     1
102
RTVSPropertyOp26
 70
     1
102
RTVSPropertyOp27
 70
     1
102
RTVSPropertyOp28
 70
     1
102
RTVSPropertyOp29
 70
     1
102
RTVSPropertyOp30
 70
     1
102
RTVSPropertyOp31
 70
     1
102
RTVSPropertyOp32
 70
     1
  0
XRECORD
  5
1BE
102
{ACAD_REACTORS
330
1BD
102
}
330
1BD
100
AcDbXrecord
280
     1
102
RTVSPropertyOp0
 70
     1
102
RTVSPropertyOp1
 70
     1
102
RTVSPropertyOp2
 70
     1
102
RTVSPropertyOp3
 70
     1
102
RTVSPropertyOp4
 70
     1
102
RTVSPropertyOp5
 70
     1
102
RTVSPropertyOp6
 70
     1
102
RTVSPropertyOp7
 70
     1
102
RTVSPropertyOp8
 70
     1
102
RTVSPropertyOp9
 70
     1
102
RTVSPropertyOp10
 70
     1
102
RTVSPropertyOp11
 70
     1
102
RTVSPropertyOp12
 70
     1
102
RTVSPropertyOp13
 70
     1
102
RTVSPropertyOp14
 70
     1
102
RTVSPropertyOp15
 70
     1
102
RTVSPropertyOp16
 70
     1
102
RTVSPropertyOp17
 70
     1
102
RTVSPropertyOp18
 70
     1
102
RTVSPropertyOp19
 70
     1
102
RTVSPropertyOp20
 70
     1
102
RTVSPropertyOp21
 70
     1
102
RTVSPropertyOp22
 70
     1
102
RTVSPropertyOp23
 70
     1
102
RTVSPropertyOp24
 70
     1
102
RTVSPropertyOp25
 70
     1
102
RTVSPropertyOp26
 70
     1
102
RTVSPropertyOp27
 70
     1
102
RTVSPropertyOp28
 70
     1
102
RTVSPropertyOp29
 70
     1
102
RTVSPropertyOp30
 70
     1
102
RTVSPropertyOp31
 70
     1
102
RTVSPropertyOp32
 70
     1
  0
XRECORD
  5
1C6
102
{ACAD_REACTORS
330
1C5
102
}
330
1C5
100
AcDbXrecord
280
     1
102
RTVSPropertyOp0
 70
     1
102
RTVSPropertyOp1
 70
     1
102
RTVSPropertyOp2
 70
     1
102
RTVSPropertyOp3
 70
     1
102
RTVSPropertyOp4
 70
     1
102
RTVSPropertyOp5
 70
     1
102
RTVSPropertyOp6
 70
     1
102
RTVSPropertyOp7
 70
     1
102
RTVSPropertyOp8
 70
     1
102
RTVSPropertyOp9
 70
     1
102
RTVSPropertyOp10
 70
     1
102
RTVSPropertyOp11
 70
     1
102
RTVSPropertyOp12
 70
     1
102
RTVSPropertyOp13
 70
     1
102
RTVSPropertyOp14
 70
     1
102
RTVSPropertyOp15
 70
     1
102
RTVSPropertyOp16
 70
     1
102
RTVSPropertyOp17
 70
     1
102
RTVSPropertyOp18
 70
     1
102
RTVSPropertyOp19
 70
     1
102
RTVSPropertyOp20
 70
     1
102
RTVSPropertyOp21
 70
     1
102
RTVSPropertyOp22
 70
     1
102
RTVSPropertyOp23
 70
     1
102
RTVSPropertyOp24
 70
     1
102
RTVSPropertyOp25
 70
     1
102
RTVSPropertyOp26
 70
     1
102
RTVSPropertyOp27
 70
     1
102
RTVSPropertyOp28
 70
     1
102
RTVSPropertyOp29
 70
     1
102
RTVSPropertyOp30
 70
     1
102
RTVSPropertyOp31
 70
     1
102
RTVSPropertyOp32
 70
     1
  0
XRECORD
  5
1BA
102
{ACAD_REACTORS
330
1B9
102
}
330
1B9
100
AcDbXrecord
280
     1
102
RTVSPropertyOp0
 70
     1
102
RTVSPropertyOp1
 70
     1
102
RTVSPropertyOp2
 70
     1
102
RTVSPropertyOp3
 70
     1
102
RTVSPropertyOp4
 70
     1
102
RTVSPropertyOp5
 70
     1
102
RTVSPropertyOp6
 70
     1
102
RTVSPropertyOp7
 70
     1
102
RTVSPropertyOp8
 70
     1
102
RTVSPropertyOp9
 70
     1
102
RTVSPropertyOp10
 70
     1
102
RTVSPropertyOp11
 70
     1
102
RTVSPropertyOp12
 70
     1
102
RTVSPropertyOp13
 70
     1
102
RTVSPropertyOp14
 70
     1
102
RTVSPropertyOp15
 70
     1
102
RTVSPropertyOp16
 70
     1
102
RTVSPropertyOp17
 70
     1
102
RTVSPropertyOp18
 70
     1
102
RTVSPropertyOp19
 70
     1
102
RTVSPropertyOp20
 70
     1
102
RTVSPropertyOp21
 70
     1
102
RTVSPropertyOp22
 70
     1
102
RTVSPropertyOp23
 70
     1
102
RTVSPropertyOp24
 70
     1
102
RTVSPropertyOp25
 70
     1
102
RTVSPropertyOp26
 70
     1
102
RTVSPropertyOp27
 70
     1
102
RTVSPropertyOp28
 70
     1
102
RTVSPropertyOp29
 70
     1
102
RTVSPropertyOp30
 70
     1
102
RTVSPropertyOp31
 70
     1
102
RTVSPropertyOp32
 70
     1
  0
XRECORD
  5
1BC
102
{ACAD_REACTORS
330
1BB
102
}
330
1BB
100
AcDbXrecord
280
     1
102
RTVSPropertyOp0
 70
     1
102
RTVSPropertyOp1
 70
     1
102
RTVSPropertyOp2
 70
     1
102
RTVSPropertyOp3
 70
     1
102
RTVSPropertyOp4
 70
     1
102
RTVSPropertyOp5
 70
     1
102
RTVSPropertyOp6
 70
     1
102
RTVSPropertyOp7
 70
     1
102
RTVSPropertyOp8
 70
     1
102
RTVSPropertyOp9
 70
     1
102
RTVSPropertyOp10
 70
     1
102
RTVSPropertyOp11
 70
     1
102
RTVSPropertyOp12
 70
     1
102
RTVSPropertyOp13
 70
     1
102
RTVSPropertyOp14
 70
     1
102
RTVSPropertyOp15
 70
     1
102
RTVSPropertyOp16
 70
     1
102
RTVSPropertyOp17
 70
     1
102
RTVSPropertyOp18
 70
     1
102
RTVSPropertyOp19
 70
     1
102
RTVSPropertyOp20
 70
     1
102
RTVSPropertyOp21
 70
     1
102
RTVSPropertyOp22
 70
     1
102
RTVSPropertyOp23
 70
     1
102
RTVSPropertyOp24
 70
     1
102
RTVSPropertyOp25
 70
     1
102
RTVSPropertyOp26
 70
     1
102
RTVSPropertyOp27
 70
     1
102
RTVSPropertyOp28
 70
     1
102
RTVSPropertyOp29
 70
     1
102
RTVSPropertyOp30
 70
     1
102
RTVSPropertyOp31
 70
     1
102
RTVSPropertyOp32
 70
     1
  0
XRECORD
  5
1C4
102
{ACAD_REACTORS
330
1C3
102
}
330
1C3
100
AcDbXrecord
280
     1
102
RTVSPropertyOp0
 70
     1
102
RTVSPropertyOp1
 70
     1
102
RTVSPropertyOp2
 70
     1
102
RTVSPropertyOp3
 70
     1
102
RTVSPropertyOp4
 70
     1
102
RTVSPropertyOp5
 70
     1
102
RTVSPropertyOp6
 70
     1
102
RTVSPropertyOp7
 70
     1
102
RTVSPropertyOp8
 70
     1
102
RTVSPropertyOp9
 70
     1
102
RTVSPropertyOp10
 70
     1
102
RTVSPropertyOp11
 70
     1
102
RTVSPropertyOp12
 70
     1
102
RTVSPropertyOp13
 70
     1
102
RTVSPropertyOp14
 70
     1
102
RTVSPropertyOp15
 70
     1
102
RTVSPropertyOp16
 70
     1
102
RTVSPropertyOp17
 70
     1
102
RTVSPropertyOp18
 70
     1
102
RTVSPropertyOp19
 70
     1
102
RTVSPropertyOp20
 70
     1
102
RTVSPropertyOp21
 70
     1
102
RTVSPropertyOp22
 70
     1
102
RTVSPropertyOp23
 70
     1
102
RTVSPropertyOp24
 70
     1
102
RTVSPropertyOp25
 70
     1
102
RTVSPropertyOp26
 70
     1
102
RTVSPropertyOp27
 70
     1
102
RTVSPropertyOp28
 70
     1
102
RTVSPropertyOp29
 70
     1
102
RTVSPropertyOp30
 70
     1
102
RTVSPropertyOp31
 70
     1
102
RTVSPropertyOp32
 70
     1
  0
XRECORD
  5
1A8
102
{ACAD_REACTORS
330
1A7
102
}
330
1A7
100
AcDbXrecord
280
     1
102
RTVSPropertyOp0
 70
     1
102
RTVSPropertyOp1
 70
     1
102
RTVSPropertyOp2
 70
     1
102
RTVSPropertyOp3
 70
     1
102
RTVSPropertyOp4
 70
     1
102
RTVSPropertyOp5
 70
     1
102
RTVSPropertyOp6
 70
     1
102
RTVSPropertyOp7
 70
     1
102
RTVSPropertyOp8
 70
     1
102
RTVSPropertyOp9
 70
     1
102
RTVSPropertyOp10
 70
     1
102
RTVSPropertyOp11
 70
     1
102
RTVSPropertyOp12
 70
     1
102
RTVSPropertyOp13
 70
     1
102
RTVSPropertyOp14
 70
     1
102
RTVSPropertyOp15
 70
     1
102
RTVSPropertyOp16
 70
     1
102
RTVSPropertyOp17
 70
     1
102
RTVSPropertyOp18
 70
     1
102
RTVSPropertyOp19
 70
     1
102
RTVSPropertyOp20
 70
     1
102
RTVSPropertyOp21
 70
     1
102
RTVSPropertyOp22
 70
     1
102
RTVSPropertyOp23
 70
     1
102
RTVSPropertyOp24
 70
     1
102
RTVSPropertyOp25
 70
     1
102
RTVSPropertyOp26
 70
     1
102
RTVSPropertyOp27
 70
     1
102
RTVSPropertyOp28
 70
     1
102
RTVSPropertyOp29
 70
     1
102
RTVSPropertyOp30
 70
     1
102
RTVSPropertyOp31
 70
     1
102
RTVSPropertyOp32
 70
     1
  0
XRECORD
  5
1AA
102
{ACAD_REACTORS
330
1A9
102
}
330
1A9
100
AcDbXrecord
280
     1
102
RTVSPropertyOp0
 70
     1
102
RTVSPropertyOp1
 70
     1
102
RTVSPropertyOp2
 70
     1
102
RTVSPropertyOp3
 70
     1
102
RTVSPropertyOp4
 70
     1
102
RTVSPropertyOp5
 70
     1
102
RTVSPropertyOp6
 70
     1
102
RTVSPropertyOp7
 70
     1
102
RTVSPropertyOp8
 70
     1
102
RTVSPropertyOp9
 70
     1
102
RTVSPropertyOp10
 70
     1
102
RTVSPropertyOp11
 70
     1
102
RTVSPropertyOp12
 70
     1
102
RTVSPropertyOp13
 70
     1
102
RTVSPropertyOp14
 70
     1
102
RTVSPropertyOp15
 70
     1
102
RTVSPropertyOp16
 70
     1
102
RTVSPropertyOp17
 70
     1
102
RTVSPropertyOp18
 70
     1
102
RTVSPropertyOp19
 70
     1
102
RTVSPropertyOp20
 70
     1
102
RTVSPropertyOp21
 70
     1
102
RTVSPropertyOp22
 70
     1
102
RTVSPropertyOp23
 70
     1
102
RTVSPropertyOp24
 70
     1
102
RTVSPropertyOp25
 70
     1
102
RTVSPropertyOp26
 70
     1
102
RTVSPropertyOp27
 70
     1
102
RTVSPropertyOp28
 70
     1
102
RTVSPropertyOp29
 70
     1
102
RTVSPropertyOp30
 70
     1
102
RTVSPropertyOp31
 70
     1
102
RTVSPropertyOp32
 70
     1
  0
XRECORD
  5
1AC
102
{ACAD_REACTORS
330
1AB
102
}
330
1AB
100
AcDbXrecord
280
     1
102
RTVSPropertyOp0
 70
     1
102
RTVSPropertyOp1
 70
     1
102
RTVSPropertyOp2
 70
     1
102
RTVSPropertyOp3
 70
     1
102
RTVSPropertyOp4
 70
     1
102
RTVSPropertyOp5
 70
     1
102
RTVSPropertyOp6
 70
     1
102
RTVSPropertyOp7
 70
     1
102
RTVSPropertyOp8
 70
     1
102
RTVSPropertyOp9
 70
     1
102
RTVSPropertyOp10
 70
     1
102
RTVSPropertyOp11
 70
     1
102
RTVSPropertyOp12
 70
     1
102
RTVSPropertyOp13
 70
     1
102
RTVSPropertyOp14
 70
     1
102
RTVSPropertyOp15
 70
     1
102
RTVSPropertyOp16
 70
     1
102
RTVSPropertyOp17
 70
     1
102
RTVSPropertyOp18
 70
     1
102
RTVSPropertyOp19
 70
     1
102
RTVSPropertyOp20
 70
     1
102
RTVSPropertyOp21
 70
     1
102
RTVSPropertyOp22
 70
     1
102
RTVSPropertyOp23
 70
     1
102
RTVSPropertyOp24
 70
     1
102
RTVSPropertyOp25
 70
     1
102
RTVSPropertyOp26
 70
     1
102
RTVSPropertyOp27
 70
     1
102
RTVSPropertyOp28
 70
     1
102
RTVSPropertyOp29
 70
     1
102
RTVSPropertyOp30
 70
     1
102
RTVSPropertyOp31
 70
     1
102
RTVSPropertyOp32
 70
     1
  0
XRECORD
  5
1AE
102
{ACAD_REACTORS
330
1AD
102
}
330
1AD
100
AcDbXrecord
280
     1
102
RTVSPropertyOp0
 70
     1
102
RTVSPropertyOp1
 70
     1
102
RTVSPropertyOp2
 70
     1
102
RTVSPropertyOp3
 70
     1
102
RTVSPropertyOp4
 70
     1
102
RTVSPropertyOp5
 70
     1
102
RTVSPropertyOp6
 70
     1
102
RTVSPropertyOp7
 70
     1
102
RTVSPropertyOp8
 70
     1
102
RTVSPropertyOp9
 70
     1
102
RTVSPropertyOp10
 70
     1
102
RTVSPropertyOp11
 70
     1
102
RTVSPropertyOp12
 70
     1
102
RTVSPropertyOp13
 70
     1
102
RTVSPropertyOp14
 70
     1
102
RTVSPropertyOp15
 70
     1
102
RTVSPropertyOp16
 70
     1
102
RTVSPropertyOp17
 70
     1
102
RTVSPropertyOp18
 70
     1
102
RTVSPropertyOp19
 70
     1
102
RTVSPropertyOp20
 70
     1
102
RTVSPropertyOp21
 70
     1
102
RTVSPropertyOp22
 70
     1
102
RTVSPropertyOp23
 70
     1
102
RTVSPropertyOp24
 70
     1
102
RTVSPropertyOp25
 70
     1
102
RTVSPropertyOp26
 70
     1
102
RTVSPropertyOp27
 70
     1
102
RTVSPropertyOp28
 70
     1
102
RTVSPropertyOp29
 70
     1
102
RTVSPropertyOp30
 70
     1
102
RTVSPropertyOp31
 70
     1
102
RTVSPropertyOp32
 70
     1
  0
XRECORD
  5
1C2
102
{ACAD_REACTORS
330
1C1
102
}
330
1C1
100
AcDbXrecord
280
     1
102
RTVSPropertyOp0
 70
     1
102
RTVSPropertyOp1
 70
     1
102
RTVSPropertyOp2
 70
     1
102
RTVSPropertyOp3
 70
     1
102
RTVSPropertyOp4
 70
     1
102
RTVSPropertyOp5
 70
     1
102
RTVSPropertyOp6
 70
     1
102
RTVSPropertyOp7
 70
     1
102
RTVSPropertyOp8
 70
     1
102
RTVSPropertyOp9
 70
     1
102
RTVSPropertyOp10
 70
     1
102
RTVSPropertyOp11
 70
     1
102
RTVSPropertyOp12
 70
     1
102
RTVSPropertyOp13
 70
     1
102
RTVSPropertyOp14
 70
     1
102
RTVSPropertyOp15
 70
     1
102
RTVSPropertyOp16
 70
     1
102
RTVSPropertyOp17
 70
     1
102
RTVSPropertyOp18
 70
     1
102
RTVSPropertyOp19
 70
     1
102
RTVSPropertyOp20
 70
     1
102
RTVSPropertyOp21
 70
     1
102
RTVSPropertyOp22
 70
     1
102
RTVSPropertyOp23
 70
     1
102
RTVSPropertyOp24
 70
     1
102
RTVSPropertyOp25
 70
     1
102
RTVSPropertyOp26
 70
     1
102
RTVSPropertyOp27
 70
     1
102
RTVSPropertyOp28
 70
     1
102
RTVSPropertyOp29
 70
     1
102
RTVSPropertyOp30
 70
     1
102
RTVSPropertyOp31
 70
     1
102
RTVSPropertyOp32
 70
     1
  0
XRECORD
  5
1B8
102
{ACAD_REACTORS
330
1B7
102
}
330
1B7
100
AcDbXrecord
280
     1
102
RTVSPropertyOp0
 70
     1
102
RTVSPropertyOp1
 70
     1
102
RTVSPropertyOp2
 70
     1
102
RTVSPropertyOp3
 70
     1
102
RTVSPropertyOp4
 70
     1
102
RTVSPropertyOp5
 70
     1
102
RTVSPropertyOp6
 70
     1
102
RTVSPropertyOp7
 70
     1
102
RTVSPropertyOp8
 70
     1
102
RTVSPropertyOp9
 70
     1
102
RTVSPropertyOp10
 70
     1
102
RTVSPropertyOp11
 70
     1
102
RTVSPropertyOp12
 70
     1
102
RTVSPropertyOp13
 70
     1
102
RTVSPropertyOp14
 70
     1
102
RTVSPropertyOp15
 70
     1
102
RTVSPropertyOp16
 70
     1
102
RTVSPropertyOp17
 70
     1
102
RTVSPropertyOp18
 70
     1
102
RTVSPropertyOp19
 70
     1
102
RTVSPropertyOp20
 70
     1
102
RTVSPropertyOp21
 70
     1
102
RTVSPropertyOp22
 70
     1
102
RTVSPropertyOp23
 70
     1
102
RTVSPropertyOp24
 70
     1
102
RTVSPropertyOp25
 70
     1
102
RTVSPropertyOp26
 70
     1
102
RTVSPropertyOp27
 70
     1
102
RTVSPropertyOp28
 70
     1
102
RTVSPropertyOp29
 70
     1
102
RTVSPropertyOp30
 70
     1
102
RTVSPropertyOp31
 70
     1
102
RTVSPropertyOp32
 70
     1
  0
XRECORD
  5
1C0
102
{ACAD_REACTORS
330
1BF
102
}
330
1BF
100
AcDbXrecord
280
     1
102
RTVSPropertyOp0
 70
     1
102
RTVSPropertyOp1
 70
     1
102
RTVSPropertyOp2
 70
     1
102
RTVSPropertyOp3
 70
     1
102
RTVSPropertyOp4
 70
     1
102
RTVSPropertyOp5
 70
     1
102
RTVSPropertyOp6
 70
     1
102
RTVSPropertyOp7
 70
     1
102
RTVSPropertyOp8
 70
     1
102
RTVSPropertyOp9
 70
     1
102
RTVSPropertyOp10
 70
     1
102
RTVSPropertyOp11
 70
     1
102
RTVSPropertyOp12
 70
     1
102
RTVSPropertyOp13
 70
     1
102
RTVSPropertyOp14
 70
     1
102
RTVSPropertyOp15
 70
     1
102
RTVSPropertyOp16
 70
     1
102
RTVSPropertyOp17
 70
     1
102
RTVSPropertyOp18
 70
     1
102
RTVSPropertyOp19
 70
     1
102
RTVSPropertyOp20
 70
     1
102
RTVSPropertyOp21
 70
     1
102
RTVSPropertyOp22
 70
     1
102
RTVSPropertyOp23
 70
     1
102
RTVSPropertyOp24
 70
     1
102
RTVSPropertyOp25
 70
     1
102
RTVSPropertyOp26
 70
     1
102
RTVSPropertyOp27
 70
     1
102
RTVSPropertyOp28
 70
     1
102
RTVSPropertyOp29
 70
     1
102
RTVSPropertyOp30
 70
     1
102
RTVSPropertyOp31
 70
     1
102
RTVSPropertyOp32
 70
     1
  0
ENDSEC
  0
EOF
